Watch NJPW G1 CLIMAX 28 2018 07 26 WEB DL DX-TV Japanese

Watch NJPW G1 CLIMAX 28 2018 07 26 WEB DL DX-TV Japanese

 

 

 

 


 

 

 

 

 

 
dx-tv.com

 

 

 

 

 

 

 

Complete name : NJPW G1 CLIMAX 28 2018 07 26 WEB DL DX-TV Japanese.mp4
Format : MPEG-4
Format profile : Base Media
Codec ID : isom
File size : 2.57 GiB
Duration : 3h 3mn
Overall bit rate : 2 011 Kbps
Writing application : Lavf56.40.101

Video
ID : 1
Format : AVC
Format/Info : Advanced Video Codec
Codec ID/Info : Advanced Video Coding
Duration : 3h 2mn
Bit rate mode : Constant
Bit rate : 1 904 Kbps
Width : 960 pixels
Height : 540 pixels
Display aspect ratio : 16:9
Frame rate mode : Variable
Frame rate : 29.970 fps
Minimum frame rate : 29.412 fps
Maximum frame rate : 30.303 fps
Standard : NTSC
Color space : YUV
Chroma subsampling : 4:2:0
Bit depth : 8 bits
Scan type : Progressive
Bits/(Pixel*Frame) : 0.123
Stream size : 2.44 GiB (95%)

Audio
ID : 2
Format : AAC
Format/Info : Advanced Audio Codec
Format profile : LC
Codec ID : 40
Duration : 3h 3mn
Bit rate mode : Constant
Bit rate : 96.0 Kbps
Channel(s) : 2 channels
Channel positions : Front: L R
Sampling rate : 44.1 KHz
Compression mode : Lossy
Stream size : 126 MiB (5%)

 

 

 

Watch NJPW G1 CLIMAX 28 2018 07 26 WEB DL DX-TV Japanese

 

 

 

 

Watch online

 

 

Waiting finish converting video

 

 

Server 1

 

 

 

 

 

 

 

 

 

 

 

 

 

 

 

 

 

 

 

Server 2

 

 

 

 

 

 

 

 

 

 

 

 

 

 

 

 

 

 

 

Uploaded By Site DX-TV.com

 

 

 

open rar file to see this password

 

 

 

 

The password : DX-TV.com

 

 

 

 

 

Uploaded.net + rapidgator.net

 

 

 

 

 

 

 

 

http://shrt10.com/K7zBPyR8

 

 

 

 

 

 

http://shrt10.com/nTz8CM1Z

 

 

 

 

 

 

 

 

 

 

 

 

 

Watch NJPW G1 CLIMAX 28 2018 07 26 WEB DL DX-TV Japanese

This site uses Akismet to reduce spam. Learn how your comment data is processed.

Support HVIPS

Please Disable Ad-Block To View This site. just help us to continue this work