Watch NJPW CMLL Fantastica Mania 2018 01 12 Day 1 TVRip Lopatar

Watch NJPW CMLL Fantastica Mania 2018 01 12 Day 1 TVRip Lopatar

 

 

 

 

 

 

wwe

 

 

 

 

 

 

 

 
Complete name : NJPW.CMLL.Fantastica.Mania.2018.01.12.Day.1.TVRip.x264-Lopatar.mp4
Format : MPEG-4
Format profile : Base Media
Codec ID : isom
File size : 1.22 GiB
Duration : 1h 55mn
Overall bit rate : 1 515 Kbps
Writing application : Lavf57.83.100

Video
ID : 1
Format : AVC
Format/Info : Advanced Video Codec
Codec ID : avc1
Codec ID/Info : Advanced Video Coding
Duration : 1h 55mn
Bit rate mode : Variable
Bit rate : 1 407 Kbps
Width : 1 024 pixels
Height : 576 pixels
Display aspect ratio : 16:9
Frame rate mode : Variable
Frame rate : 29.970 fps
Minimum frame rate : 16.949 fps
Maximum frame rate : 100.000 fps
Color space : YUV
Chroma subsampling : 4:2:0
Bit depth : 8 bits
Scan type : Progressive
Bits/(Pixel*Frame) : 0.080
Stream size : 1.13 GiB (93%)

Audio
ID : 2
Format : AAC
Format/Info : Advanced Audio Codec
Format profile : LC
Codec ID : 40
Duration : 1h 55mn
Bit rate mode : Constant
Bit rate : 96.0 Kbps
Channel(s) : 2 channels
Channel positions : Front: L R
Sampling rate : 44.1 KHz
Compression mode : Lossy
Stream size : 79.2 MiB (6%)

 

 

Watch NJPW CMLL Fantastica Mania 2018 01 12 Day 1 TVRip Lopatar

 

 

Watch online

 

 

Waiting finish converting video

 

 

Server 1

 

 

 

 

 

 

 

 

 

 

 

 

 

 

 

 

 

 

 

 

 

Server 2

 

 

 

 

 

 


 

 

 

 

 

 

 

 

Uploaded By Site DX-TV.com

 

 

 

open rar file to see this password

 

 

 

 

The password is : DX-TV.com

 

 

 

 

 

 

Uploaded.net + rapidgator.net

 

 

 

 

 

 

 

 

 

 

http://shrt10.com/7IacibP

 

 

 

 

http://shrt10.com/VLcnk

 

 

 

 

 

 

Watch NJPW CMLL Fantastica Mania 2018 01 12 Day 1 TVRip Lopatar