Watch NJPW 2018 08 12 G1 Climax 28 Final English WEB LATE

Watch NJPW 2018 08 12 G1 Climax 28 Final English WEB LATE

 

 

 

 


 

 

 

 

dx-tv.com

 

 

 

 

 

 

Complete name : NJPW.2018.08.12.G1.Climax.28.Final.ENGLISH.WEB.h264-LATE.mkv
Format : Matroska
Format version : Version 4 / Version 2
File size : 3.45 GiB
Duration : 4 h 10 min
Overall bit rate : 1 975 kb/s

Video
ID : 1
Format : AVC
Format/Info : Advanced Video Codec
Codec ID : V_MPEG4/ISO/AVC
Duration : 4 h 10 min
Bit rate mode : Constant
Bit rate : 1 904 kb/s
Width : 960 pixels
Height : 540 pixels
Display aspect ratio : 16:9
Frame rate mode : Constant
Frame rate : 29.970 (29970/1000) FPS
Original frame rate : 29.970 (30000/1001) FPS
Standard : NTSC
Color space : YUV
Chroma subsampling : 4:2:0
Bit depth : 8 bits
Scan type : Progressive
Bits/(Pixel*Frame) : 0.123
Stream size : 3.28 GiB (95%)
Default : Yes
Forced : No
Color range : Limited

Audio
ID : 2
Format : AAC
Format/Info : Advanced Audio Codec
Format profile : LC
Codec ID : A_AAC-2
Duration : 4 h 10 min
Bit rate : 96.0 kb/s
Channel(s) : 2 channels
Channel positions : Front: L R
Sampling rate : 44.1 kHz
Frame rate : 43.066 FPS (1024 SPF)
Compression mode : Lossy
Delay relative to video : -34 ms
Stream size : 172 MiB (5%)
Language : English
Default : Yes
Forced : No

 

 

 

 

 

 

 

Watch NJPW 2018 08 12 G1 Climax 28 Final English WEB LATE

 

 

 

 

Watch online

 

 

Waiting finish converting video

 

 

Server 1

 

 

 

 

 

 

 

 

 

 

 

 

 

 

 

 

 

 

 

 

Server 2

 

 

 

 

 

 

 

 


 

 

 

 

 

 

 

Uploaded By Site DX-TV.com

 

 

 

open rar file to see this password

 

 

 

 

The password : DX-TV.com

 

 

 

 

Uploaded.net + rapidgator.net

 

 

 

 

 

 

http://shrt10.com/kcO3ZKGu

 
http://shrt10.com/Se73k99

 

 

 

 

 

 

 

 

Watch NJPW 2018 08 12 G1 Climax 28 Final English WEB LATE

This site uses Akismet to reduce spam. Learn how your comment data is processed.

Support HVIPS

Please Disable Ad-Block To View This site. just help us to continue this work