Watch NJPW 2018 08 11 G1 Climax 28 Day 18 English WEB LATE

Watch NJPW 2018 08 11 G1 Climax 28 Day 18 English WEB LATE

 

 

 

 


 

 

 

dx-tv.com

 

 

 

 

 

Complete name : NJPW.2018.08.11.G1.Climax.28.Day.18.ENGLISH.WEB.h264-LATE.mkv
Format : Matroska
Format version : Version 4 / Version 2
File size : 2.83 GiB
Duration : 3 h 25 min
Overall bit rate : 1 974 kb/s

Video
ID : 1
Format : AVC
Format/Info : Advanced Video Codec
Format settings, GOP : M=1, N=59
Codec ID : V_MPEG4/ISO/AVC
Duration : 3 h 25 min
Bit rate mode : Constant
Bit rate : 1 904 kb/s
Width : 960 pixels
Height : 540 pixels
Display aspect ratio : 16:9
Frame rate mode : Constant
Standard : NTSC
Color space : YUV
Chroma subsampling : 4:2:0
Bit depth : 8 bits
Scan type : Progressive
Bits/(Pixel*Frame) : 0.123
Stream size : 2.69 GiB (95%)
Default : Yes
Forced : No
Color range : Limited

Audio
ID : 2
Format : AAC
Format/Info : Advanced Audio Codec
Format profile : LC
Codec ID : A_AAC-2
Duration : 3 h 25 min
Bit rate : 96.0 kb/s
Channel(s) : 2 channels
Channel positions : Front: L R
Sampling rate : 44.1 kHz
Frame rate : 43.066 FPS (1024 SPF)
Compression mode : Lossy
Delay relative to video : -33 ms
Stream size : 141 MiB (5%)
Language : English
Default : Yes
Forced : No

 

 

 

 

 

 

 

Watch NJPW 2018 08 11 G1 Climax 28 Day 18 English WEB LATE

 

 

 

 

Watch online

 

 

Waiting finish converting video

 

 

Server 1

 

 

 

 

 

 

 

 

 

 

 

 

 

 

 

 

 

 

 

 

Server 2

 

 

 

 

 

 

 

 


 

 

 

 

 

 

 

Uploaded By Site DX-TV.com

 

 

 

open rar file to see this password

 

 

 

 

The password : DX-TV.com

 

 

 

 

Uploaded.net + rapidgator.net

 

 

 

 

 

 

 
http://shrt10.com/dr0y5D
 

http://shrt10.com/tMJfgcMe
 

 

 

 

 

 

 

 

 

Watch NJPW 2018 08 11 G1 Climax 28 Day 18 English WEB LATE