Watch NJPW 2018 08 04 G1 Climax 28 Day 14 English WEB LATE

Watch NJPW 2018 08 04 G1 Climax 28 Day 14 English WEB LATE

 

 

 


 

 

dx-tv.com

 

 

 

 

 

 
Complete name : NJPW.2018.08.04.G1.Climax.28.Day.14.ENGLISH.WEB.h264-LATE.mkv
Format : Matroska
Format version : Version 4 / Version 2
File size : 2.77 GiB
Duration : 3 h 21 min
Overall bit rate : 1 974 kb/s

Video
ID : 1
Format : AVC
Format/Info : Advanced Video Codec
Format settings, GOP : M=1, N=59
Codec ID : V_MPEG4/ISO/AVC
Duration : 3 h 21 min
Bit rate mode : Constant
Bit rate : 1 904 kb/s
Width : 960 pixels
Height : 540 pixels
Display aspect ratio : 16:9
Frame rate mode : Constant
Frame rate : 29.969 FPS
Original frame rate : 29.970 (30000/1001) FPS
Standard : NTSC
Color space : YUV
Chroma subsampling : 4:2:0
Bit depth : 8 bits
Scan type : Progressive
Bits/(Pixel*Frame) : 0.123
Stream size : 2.63 GiB (95%)
Default : Yes
Forced : No
Color range : Limited

Audio
ID : 2
Format : AAC
Format/Info : Advanced Audio Codec
Format profile : LC
Codec ID : A_AAC-2
Duration : 3 h 21 min
Bit rate : 96.0 kb/s
Channel(s) : 2 channels
Channel positions : Front: L R
Sampling rate : 44.1 kHz
Compression mode : Lossy
Delay relative to video : -33 ms
Stream size : 138 MiB (5%)
Language : English
Default : Yes
Forced : No

 

 

 

Watch NJPW 2018 08 04 G1 Climax 28 Day 14 English WEB LATE

 

 

 

Watch online

 

 

Waiting finish converting video

 

 

Server 1

 

 

 

 

 

 

 

 

 

 

 

 

 

 

Server 2

 

 

 

 

 


 

 

 

 

 

 

Uploaded By Site DX-TV.com

 

 

 

open rar file to see this password

 

 

 

 

The password : DX-TV.com

 

 

 

 

 

 

Uploaded.net + rapidgator.net

 

 

 

 

 

 

 

http://shrt10.com/Jt2H

 

 

 

 

 

 

http://shrt10.com/WiDuk

 

 

 

 

 

 

 

Watch NJPW 2018 08 04 G1 Climax 28 Day 14 English WEB LATE

This site uses Akismet to reduce spam. Learn how your comment data is processed.

Support HVIPS

Please Disable Ad-Block To View This site. just help us to continue this work