Watch NEW 2018 03 02 Wrestlefest 22 WEB NCMP /720p

Watch NEW 2018 03 02 Wrestlefest 22 WEB NCMP /720p

 

 

 

s

 

 

 

wwe

 

 

 

 

 

 

Complete name : NEW.2018.03.02.Wrestlefest.22.WEB.h264-NCMP.mp4
Format : MPEG-4
Format profile : Base Media
Codec ID : isom
File size : 1.58 GiB
Duration : 2h 23mn
Overall bit rate : 1 576 Kbps
Writing application : Lavf55.12.100

Video
ID : 2
Format : AVC
Format/Info : Advanced Video Codec
Codec ID : avc1
Codec ID/Info : Advanced Video Coding
Duration : 2h 23mn
Bit rate mode : Variable
Bit rate : 1 495 Kbps
Width : 854 pixels
Height : 480 pixels
Display aspect ratio : 16:9
Frame rate mode : Constant
Frame rate : 29.970 fps
Color space : YUV
Chroma subsampling : 4:2:0
Bit depth : 8 bits
Scan type : Progressive
Bits/(Pixel*Frame) : 0.122
Stream size : 1.50 GiB (95%)
Audio
ID : 1
Format : AAC
Format/Info : Advanced Audio Codec
Format profile : LC
Codec ID : 40
Duration : 2h 23mn
Bit rate mode : Variable
Bit rate : 72.0 Kbps
Maximum bit rate : 120 Kbps
Channel(s) : 2 channels
Channel positions : Front: L R
Sampling rate : 44.1 KHz
Compression mode : Lossy
Stream size : 74.2 MiB (5%)

 

 

 

 

 

 

 

 
NEW: Wrestlefest 22
Video Duration: 02:23:46

Northeast Wrestling
Wrestlefest 22
Wilby High School
Waterbury, CT
3/2/18

1. NEW Tag Team Title Match: Adrenaline Rush vs. Robbie E. & Cam Zagami

2. Lanny Poffo Addresses the Crowd

3. Christian Casanova vs. Chris Battle vs. Sexy Beast Bull Dread

4. “Man Scout” Jake Manning vs. King Brian Anthony

5. American Sumo Mike Gamble vs. Ron Zombie

6. Deonna Purrazzo vs. Tenille Dashwood

7. Matt Riddle vs. Brad Hollister

8. Wrecking Ball Legursky w/ Jared Silberkleit vs. Josh Briggs

9. Rey Mysterio & Flip Gordon vs. Joey Mercury & Caleb Konley
 

 

 

 

 

 

 

 

 

 

Watch NEW 2018 03 02 Wrestlefest 22 WEB NCMP /720p

 

 

 

 

Watch online

 

 

Waiting finish converting video

 

 

Server 1

 

 

 

 

 

 

 

 

 

 

 

 

 

 

 

 

 

Server 2

 

 

 

 

 

 

 


 

 

 

 

 

Uploaded By Site DX-TV.com

 

 

 

open rar file to see this password

 

 

 

 

The password is : DX-TV.com

 

 

 

 

400p+720p

 

 

 

 

 

Uploaded.net + rapidgator.net

 

 

 

 

 

 

http://shrt10.com/linMTQlQ

 

http://shrt10.com/QFAFQ

 

http://shrt10.com/oIfd6k

 

http://shrt10.com/ZWgDR

 

 

 

 

 

 

 

 

 

 

 

 

Watch NEW 2018 03 02 Wrestlefest 22 WEB NCMP /720p