Watch NEW 2017 12 01 Holiday Havoc WEB /720p

Watch NEW 2017 12 01 Holiday Havoc WEB /720p

 

 

 

 

 

 

wwe

 

 

 

 

 

NEW.2017.12.01.Holiday.Havoc.WEB.h264-NCMP

 
Video Duration: 02:24:27
Released: 2017-12-05

Northeast Wrestling
Holiday Havoc
Wilby High School
Waterbury, CT
12/1/17  

 

 

 

 

 

 

Complete name : NEW.2017.12.01.Holiday.Havoc.WEB.h264-NCMP.mp4
Format : MPEG-4
Format profile : Base Media
Codec ID : isom
File size : 1.58 GiB
Duration : 2h 24mn
Overall bit rate : 1 566 Kbps

Video
ID : 2
Format : AVC
Duration : 2h 24mn
Bit rate mode : Variable
Bit rate : 1 495 Kbps
Width : 854 pixels
Height : 480 pixels
Display aspect ratio : 16:9
Frame rate mode : Constant
Frame rate : 29.970 fps
Color space : YUV
Chroma subsampling : 4:2:0
Bit depth : 8 bits
Scan type : Progressive
Bits/(Pixel*Frame) : 0.122
Stream size : 1.51 GiB (95%)

Audio
ID : 1
Format : AAC
Format/Info : Advanced Audio Codec
Format profile : LC
Codec ID : 40
Duration : 2h 24mn
Bit rate mode : Variable
Bit rate : 63.9 Kbps
Maximum bit rate : 106 Kbps
Channel(s) : 2 channels
Channel positions : Front: L R
Sampling rate : 44.1 KHz
Compression mode : Lossy

 

 

 

 

 

 
Complete name : NEW.2017.12.01.Holiday.Havoc.720p.WEB.h264-NCMP.mp4
Format : MPEG-4
Format profile : Base Media
Codec ID : isom
File size : 2.69 GiB
Duration : 2h 24mn
Overall bit rate : 2 661 Kbps

Video
ID : 2
Format : AVC
Duration : 2h 24mn
Bit rate mode : Variable
Bit rate : 2 590 Kbps
Width : 1 280 pixels
Height : 720 pixels
Display aspect ratio : 16:9
Frame rate mode : Constant
Frame rate : 29.970 fps
Color space : YUV
Chroma subsampling : 4:2:0
Bit depth : 8 bits
Scan type : Progressive
Bits/(Pixel*Frame) : 0.094
Stream size : 2.61 GiB (97%)

Audio
ID : 1
Format : AAC
Format/Info : Advanced Audio Codec
Format profile : LC
Codec ID : 40
Duration : 2h 24mn
Bit rate mode : Variable
Bit rate : 63.9 Kbps
Maximum bit rate : 106 Kbps
Channel(s) : 2 channels
Channel positions : Front: L R
Sampling rate : 44.1 KHz
Compression mode : Lossy

 

 

 

 

 

 

 

 

 

 

 

 

Watch NEW 2017 12 01 Holiday Havoc WEB /720p

 

 

 

 

Watch online

 

 

Waiting finish converting video

 

 

Server 1

 

 

 

 

 

 

 

 

 

 

 

 

 

 

 

 

 

 

 

 

Server 2

 

 

 

 

 

 

 

 

 


 

 

 

 

 

 

Srver 3

 

 

 

 

 

 

 

 

 

 


 

 

 

 

 

 

 

Uploaded By Site DX-TV.com

 

 

 

open rar file to see this password

 

 

 

 

The password is : DX-TV.com

 

 

 

 

400p+720p

 

 

 

Uploaded.net

 

 

 

 

 

 

 

 

http://shrt10.com/jGz0dW

 

 

 

http://shrt10.com/4Zrn

 

 

 

 

 

 

 

rapidgator.net

 

 

 

 

 

 

 

http://shrt10.com/i8Qf

 

 

 

http://shrt10.com/9rSY

 

 

 

 

 

 

 

Watch NEW 2017 12 01 Holiday Havoc WEB /720p

Support HVIPS

Please Disable Ad-Block To View This site. just help us to continue this work