Watch KSW 2017 12 23 PPV 720p HDTV x264 DX-TV /720p

Watch KSW 2017 12 23 PPV 720p HDTV x264 DX-TV /720p

 

 

 

 

 

wwe

 

 

 

 

 

 

 

[EVENT]………..: MMMA KSW 41 PPV 2017 12 23 HDTV x264 DX-TV mp4
[RELEASED]……..: 2017.12.23
[SOURCE]……….: HDTV 720p
[CONTAINER]…….: mp4
[SIZE]…………: 3.08 GB
[Capper Group]….: DX-TV
[Duration]……..: 4 h 41 m
[RESOLUTION]……: 720 x 480 {16:9}@ 30.000 FPS
[VIDEO]………..: x264 @ 1400 kbps
[AUDIO]………..: AAC @ 160 kbps
[language]……..: English
 

 

Complete name : mma.ksw.2017.12.23.ppv.720p.hdtv.x264-verum.mkv
Format : Matroska
File size : 8.01 GiB
Duration : 4h 41mn
Overall bit rate : 4 068 Kbps
Encoded date : UTC 2010-02-22 21:41:29

Video
ID : 1
Format : AVC
Format/Info : Advanced Video Codec
Duration : 4h 41mn
Bit rate : 3 603 Kbps
Width : 1 280 pixels
Height : 720 pixels
Display aspect ratio : 16:9
Frame rate : 50.000 fps
Color space : YUV
Chroma subsampling : 4:2:0
Bit depth : 8 bits
Scan type : Progressive
Bits/(Pixel*Frame) : 0.078
Stream size : 7.09 GiB (89%)

Audio
ID : 2
Format version : Version 1
Format profile : Layer 2
Codec ID : A_MPEG/L2
Codec ID/Hint : MP2
Duration : 4h 41mn
Bit rate mode : Constant
Bit rate : 384 Kbps
Channel(s) : 2 channels
Sampling rate : 48.0 KHz
Compression mode : Lossy
Delay relative to video : -512ms
Stream size : 774 MiB (9%)

 

 

 

 

 

 

 

 

Watch KSW 2017 12 23 PPV 720p HDTV x264 DX-TV /720p

 

 

 

Watch online

 

 

Waiting finish converting video

 

 

Server 1

 

 

 

 

 

 

 

 

 

 

 

 

 

 

 

 

 

 

 

 

Server 2

 

 

 

 

 

 

 

 

 

 

 

 

 


 

 

 

 

 

 

 

Uploaded By Site DX-TV.com

 

 

 

open rar file to see this password

 

 

 

 

The password is : DX-TV.com

 

 

 

 

480p+720p

 

 

 

 

rapidgator.net

 

 

 

 

 

 

 

 

 

http://shrt10.com/r2UzUZqM

 

 

http://shrt10.com/Pqke5

 

 

http://shrt10.com/0luu

 

 

http://shrt10.com/i7Ur5NrN

 

 

 

 

 

 

 

 

 

 

 

 

Watch KSW 2017 12 23 PPV 720p HDTV x264 DX-TV /720p

Support HVIPS

Please Disable Ad-Block To View This site. just help us to continue this work