Watch MLW Never Say Never 2017 12 07 WEb DL mp4

Watch MLW Never Say Never 2017 12 07 WEb DL mp4

 

 

 

 

 

 

wwe

 

 

 

 

 

 

Complete name : MLW Never Say Never (2017.12.07).mp4
Format : MPEG-4
Format profile : Base Media
Codec ID : isom
File size : 2.17 GiB
Duration : 2h 37mn
Overall bit rate : 1 981 Kbps

Video
ID : 1
Format : AVC
Format/Info : Advanced Video Codec
Codec ID : avc1
Codec ID/Info : Advanced Video Coding
Duration : 2h 37mn
Bit rate mode : Variable
Bit rate : 1 851 Kbps
Width : 1 280 pixels
Height : 720 pixels
Display aspect ratio : 16:9
Frame rate mode : Constant
Frame rate : 29.970 fps
Color space : YUV
Chroma subsampling : 4:2:0
Bit depth : 8 bits
Scan type : Progressive
Bits/(Pixel*Frame) : 0.067
Stream size : 2.03 GiB (93%)

Audio
ID : 2
Format : AAC
Format/Info : Advanced Audio Codec
Format profile : LC
Codec ID : 40
Duration : 2h 37mn
Bit rate mode : Variable
Bit rate : 126 Kbps
Channel(s) : 2 channels
Channel positions : Front: L R
Sampling rate : 44.1 KHz
Compression mode : Lossy
Stream size : 141 MiB (6%)
Encoded date : UTC 2017-12-13 16:57:38
Tagged date : UTC 2017-12-13 16:57:38

 

 

 

 

Singles Match
Serpentico vs. Snoop Strikes

Singles Match
Matt Riddle vs. Tom Lawlor

Singles Match
Parrow vs. Saieve Al Sabah

Tag Team Match
Rhett Giddins & Seth Petruzelli vs. The Dirty Blondes (Leo Brien & Mike Patrick)

Singles Match
Andrew Merlin vs. Barrington Hughes

Singles Match
Jimmy Yuta vs. Johnny Vandal

Singles Match
Leva Bates vs. Santana Garrett

Singles Match
Joey Ryan vs. Maxwell Jacob Friedman

Singles Match
Brody King vs. MVP

Singles Match
Jason Cade vs. Sammy Guevara (w/Salina de la Renta)

No Disqualification Tag Team Match
Darby Allin & Jimmy Havoc vs. John Hennigan & Shane Strickland
 

 

 

 

 

 

 

 

 

 

 

 

 

Watch MLW Never Say Never 2017 12 07 WEb DL mp4

 

 

 

 

Watch online

 

 

Waiting finish converting video

 

 

Server 1

 

 

 

 

 

 

 

 

 

 

 

 

 

 

 

 

 

 

 

 

Server 2

 

 

 

 

 

 

 

 

 

 

 

 


 

 

 

 

 

 

 

 

 

Uploaded By Site DX-TV.com

 

 

 

open rar file to see this password

 

 

 

 

The password is : DX-TV.com

 

 

 

 

 

 

 

 

 

rapidgator.net

 

 

 

 

 

 

 

 

http://shrt10.com/PuAvZ

 

 

 

 

 

 

Watch MLW Never Say Never 2017 12 07 WEb DL mp4