Watch MLW 2018 07 27 Battle Riot 720p WEB NCMP

Watch MLW 2018 07 27 Battle Riot 720p WEB NCMP

 

 

 

 


 

 

 

dx-tv.com

 

 

 

 

Complete name : MLW.2018.07.27.Battle.Riot.720p.WEB.h264-NCMP.mp4
Format : MPEG-4
Format profile : Base Media / Version 2
Codec ID : mp42
File size : 1.62 GiB
Duration : 1h 36mn
Overall bit rate : 2 396 Kbps
Encoded date : UTC 2018-07-27 15:25:48
Tagged date : UTC 2018-07-27 15:25:48

Video
ID : 1
Format : AVC
Format/Info : Advanced Video Codec
Codec ID : avc1
Codec ID/Info : Advanced Video Coding
Duration : 1h 36mn
Bit rate mode : Variable
Bit rate : 2 266 Kbps
Width : 1 280 pixels
Height : 720 pixels
Display aspect ratio : 16:9
Frame rate mode : Constant
Frame rate : 29.970 fps
Color space : YUV
Chroma subsampling : 4:2:0
Bit depth : 8 bits
Scan type : Progressive
Bits/(Pixel*Frame) : 0.082
Stream size : 1.53 GiB (95%)

Audio
ID : 2
Format : AAC
Format/Info : Advanced Audio Codec
Format profile : LC
Codec ID : 40
Duration : 1h 36mn
Bit rate mode : Variable
Bit rate : 126 Kbps
Channel(s) : 2 channels
Channel positions : Front: L R
Sampling rate : 44.1 KHz
Compression mode : Lossy
Stream size : 87.0 MiB (5%)
Language : English
Encoded date : UTC 2018-07-27 15:25:48
Tagged date : UTC 2018-07-27 15:25:48

 

 

 

Watch MLW 2018 07 27 Battle Riot 720p WEB NCMP

 

 

 

 

Watch online

 

 

Waiting finish converting video

 

 

Server 1

 

 

 

 

 

 

 

 

 

 

 

 

 

 

 

 

Server 2

 

 

 

 

 

 


 

 

 

 

Uploaded By Site DX-TV.com

 

 

 

open rar file to see this password

 

 

 

 

The password : DX-TV.com

 

 

 

 

 

Uploaded.net + rapidgator.net

 

 

 

 

 

 

 

http://shrt10.com/ObkNRm

 

 

 

 

 

 

http://shrt10.com/H6T4O

 

 

 

 

 

 

 

Watch MLW 2018 07 27 Battle Riot 720p WEB NCMP

This site uses Akismet to reduce spam. Learn how your comment data is processed.

Support HVIPS

Please Disable Ad-Block To View This site. just help us to continue this work