Watch MLW 2018 01 11 Zero Hour WEB DL x264 DX-TV /1080p

Watch MLW 2018 01 11 Zero Hour WEB DL x264 DX-TV /1080p

 

 

 

 

 

wwe

 

 

 

 

 

 

Complete name : MLW.2018.01.11.Zero.Hour.480p.WEB-DL.mp4
Format : MPEG-4
Format profile : Base Media / Version 2
Codec ID : mp42
File size : 1.89 GiB
Duration : 2h 42mn
Overall bit rate : 1 662 Kbps

Video
ID : 1
Format : AVC
Format/Info : Advanced Video Codec
Codec ID : avc1
Codec ID/Info : Advanced Video Coding
Duration : 2h 42mn
Bit rate mode : Variable
Bit rate : 1 500 Kbps
Width : 720 pixels
Height : 480 pixels
Display aspect ratio : 3:2
Frame rate mode : Constant
Frame rate : 29.970 fps
Standard : NTSC
Color space : YUV
Chroma subsampling : 4:2:0
Bit depth : 8 bits
Scan type : Progressive
Bits/(Pixel*Frame) : 0.145
Stream size : 1.70 GiB (90%)

Audio
ID : 2
Format : AAC
Format/Info : Advanced Audio Codec
Format profile : LC
Codec ID : 40
Duration : 2h 42mn
Bit rate mode : Variable
Bit rate : 161 Kbps
Channel(s) : 2 channels
Channel positions : Front: L R
Sampling rate : 48.0 KHz
Compression mode : Lossy
Stream size : 187 MiB (10%)
Title : Stereo

 

 

 

 

 

 

 

 
Complete name : MLW.2018.01.11.Zero.Hour.1080p.WEB-DL.mp4
Format : MPEG-4
Format profile : Base Media
Codec ID : isom
File size : 4.58 GiB
Duration : 2h 42mn
Overall bit rate : 4 036 Kbps

Video
ID : 1
Format : AVC
Format/Info : Advanced Video Codec
Codec ID : avc1
Codec ID/Info : Advanced Video Coding
Duration : 2h 42mn
Bit rate mode : Variable
Bit rate : 3 970 Kbps
Maximum bit rate : 8 582 Kbps
Width : 1 920 pixels
Height : 1 080 pixels
Display aspect ratio : 16:9
Frame rate mode : Constant
Frame rate : 29.970 fps
Color space : YUV
Chroma subsampling : 4:2:0
Bit depth : 8 bits
Scan type : Progressive
Bits/(Pixel*Frame) : 0.064
Stream size : 4.51 GiB (98%)

Audio
ID : 2
Format : AAC
Format/Info : Advanced Audio Codec
Format profile : LC
Codec ID : 40
Duration : 2h 42mn
Bit rate mode : Variable
Bit rate : 63.0 Kbps
Maximum bit rate : 119 Kbps
Channel(s) : 2 channels
Channel positions : Front: L R
Sampling rate : 48.0 KHz
Compression mode : Lossy
Stream size : 73.3 MiB (2%)

 

 

 

 

 

 

 

 

 

 

Watch MLW 2018 01 11 Zero Hour WEB DL x264 DX-TV /1080p

 

 

 

 

Watch online

 

 

Waiting finish converting video

 

 

Server 1

 

 

 

 

 

 

 

 

 

 

 

 

 

 

 

 

 

 

Server 2

 

 

 

 

 

 

 

 


 

 

 

 

 

Uploaded By Site DX-TV.com

 

 

 

open rar file to see this password

 

 

 

 

The password is : DX-TV.com

 

 

 

 

400p+1080p

 

 

 

 

 

Uploaded.net + rapidgator.net

 

 

 

 

 

 

 

 

http://shrt10.com/UBApZ

 

http://shrt10.com/yy9lp

 

http://shrt10.com/hXkKsRA

 

http://shrt10.com/lmQ3nW4J

 

http://shrt10.com/rKQA7m

 

http://shrt10.com/SmfUe4

 

 

 

 

 

 

 

 

 

Watch MLW 2018 01 11 Zero Hour WEB DL x264 DX-TV /1080p