Watch M 1 Challenge 90 720p HDTV /720p Prelims

Watch M 1 Challenge 90 720p HDTV /720p Prelims

 

 

 

 

 

 

wwe

 

 

 

 

 

 

 
Complete name : M.1.Challenge.90.720p.HDTV.x264.mkv
Format : Matroska
File size : 3.58 GiB
Duration : 4h 1mn
Overall bit rate : 2 128 Kbps
Writing application : Lavf54.59.106
Writing library : Lavf54.59.106

Video
ID : 1
Format : AVC
Format/Info : Advanced Video Codec
Format profile : Baseline@L3.1
Duration : 4h 1mn
Nominal bit rate : 2 000 Kbps
Width : 1 280 pixels
Height : 720 pixels
Display aspect ratio : 16:9
Frame rate mode : Variable
Frame rate : 28.083 fps
Color space : YUV
Chroma subsampling : 4:2:0
Bit depth : 8 bits
Scan type : Progressive
Bits/(Pixel*Frame) : 0.077
Writing library : x264 core 135
Language : English

Audio
ID : 2
Format : AAC
Format/Info : Advanced Audio Codec
Format profile : LC
Codec ID : A_AAC
Duration : 4h 1mn
Channel(s) : 2 channels
Channel positions : Front: L R
Sampling rate : 44.1 KHz
Bit depth : 16 bits
Compression mode : Lossy
Delay relative to video : -23ms
Language : English

 

 

 

 

 

 

 
Complete name : M1.Challenge.90.Prelims.720p-TotAnon.mp4
Format : MPEG-4
Format profile : Base Media
Codec ID : isom
File size : 1.53 GiB
Duration : 1h 32mn
Overall bit rate : 2 384 Kbps
Writing application : eRightSoft(C)

Video
ID : 1
Format : AVC
Format/Info : Advanced Video Codec
Format profile : Main@L3.1
Codec ID : avc1
Codec ID/Info : Advanced Video Coding
Duration : 1h 32mn
Bit rate mode : Variable
Bit rate : 2 247 Kbps
Width : 1 280 pixels
Height : 720 pixels
Display aspect ratio : 16:9
Frame rate mode : Variable
Frame rate : 27.994 fps
Minimum frame rate : 2.909 fps
Maximum frame rate : 51.635 fps
Color space : YUV
Chroma subsampling : 4:2:0
Bit depth : 8 bits
Scan type : Progressive
Bits/(Pixel*Frame) : 0.087
Stream size : 1.45 GiB (94%)

Audio
ID : 2
Format : AAC
Format/Info : Advanced Audio Codec
Format profile : LC
Codec ID : 40
Duration : 1h 32mn
Bit rate mode : Constant
Bit rate : 128 Kbps
Channel(s) : 2 channels
Channel positions : Front: L R
Sampling rate : 44.1 KHz
Compression mode : Lossy
Stream size : 84.5 MiB (5%)

 

 

 

 

 

 

 

 

 

 

 

Watch M 1 Challenge 90 720p HDTV /720p Prelims

 

 

 

 

Watch online

 

 

Waiting finish converting video

 

 

Server 1

 

 

 

 

 

 

 

 

 

 

 

 

 

 

 

 

 

 

 

 

 

Server 2

 

 

 

 

 


 

 


 

 

 

 

Uploaded By Site DX-TV.com

 

 

 

open rar file to see this password

 

 

 

 

The password is : DX-TV.com

 

 

 

 

400p+720p

 

 

 

 

 

Uploaded.net + rapidgator.net

 

 

 

 

 

 

http://shrt10.com/dSmw5

 

 

http://shrt10.com/CAJuXt9

 

 

http://shrt10.com/d6dScvOc

 

 

http://shrt10.com/opivwc

 

 

 

 

 

 

Watch M 1 Challenge 90 720p HDTV /720p Prelims