Watch M-1 Challenge 86 2017 11 24 720p / Prelims

Watch M-1 Challenge 86 2017 11 24 720p / Prelims

 

 

 

 

 

 

wwe

 

 

 

 

 

Complete name : M-1 Challenge 86 – Main Card.mp4
Format : MPEG-4
Format profile : Base Media
Codec ID : isom
File size : 2.40 GiB
Duration : 2h 20mn
Overall bit rate : 2 456 Kbps
Writing application : Lavf57.71.100

Video
ID : 1
Format : AVC
Duration : 2h 20mn
Bit rate mode : Variable
Bit rate : 2 254 Kbps
Width : 1 280 pixels
Height : 720 pixels
Display aspect ratio : 16:9
Frame rate mode : Variable
Frame rate : 25.000 fps
Minimum frame rate : 11.563 fps
Maximum frame rate : 25.000 fps
Color space : YUV
Chroma subsampling : 4:2:0
Bit depth : 8 bits
Scan type : Progressive
Bits/(Pixel*Frame) : 0.098
Stream size : 2.20 GiB (92%)

Audio
ID : 2
Format : AAC
Format profile : LC
Codec ID : 40
Duration : 2h 20mn
Bit rate mode : Constant
Bit rate : 204 Kbps
Channel(s) : 2 channels
Channel positions : Front: L R
Sampling rate : 44.1 KHz
Compression mode : Lossy
Stream size : 205 MiB (8%)

 

 

 

 

 
Complete name : M-1 Challenge 86 – Prelims.mp4
Format : MPEG-4
Format profile : Base Media
Codec ID : isom
File size : 1.42 GiB
Duration : 1h 22mn
Overall bit rate : 2 456 Kbps
Writing application : Lavf57.71.100

Video
ID : 1
Format : AVC
Duration : 1h 22mn
Bit rate mode : Variable
Bit rate : 2 254 Kbps
Width : 1 280 pixels
Height : 720 pixels
Display aspect ratio : 16:9
Frame rate mode : Variable
Frame rate : 25.000 fps
Minimum frame rate : 11.563 fps
Maximum frame rate : 25.000 fps
Color space : YUV
Chroma subsampling : 4:2:0
Bit depth : 8 bits
Scan type : Progressive
Bits/(Pixel*Frame) : 0.098
Stream size : 1.30 GiB (92%)

Audio
ID : 2
Format : AAC
Format profile : LC
Codec ID : 40
Duration : 1h 22mn
Bit rate mode : Constant
Bit rate : 204 Kbps
Channel(s) : 2 channels
Channel positions : Front: L R
Sampling rate : 44.1 KHz
Compression mode : Lossy
Stream size : 120 MiB (8%)

 

 

 

 

 

 

Watch M-1 Challenge 86 2017 11 24 720p / Prelims

 

 

 

 

Watch online

 

 

Waiting finish converting video

 

 

Server 1

 

 

 

 

 

 

 

 

 

 

 

 

 

 

 

 

 

 

 

Server 2

 

 

 

 

 


 

 


 

 

 

Srver 3

 

 

 

 

 

 

 


 


 

 

 

 

Uploaded By Site DX-TV.com

 

 

 

open rar file to see this password

 

 

 

 

The password is : DX-TV.com

 

 

 

 

720p

 

 

 

Uploaded.net

 

 

 

 

 

 

 

 

http://shrt10.com/mwemBgc4

 

 

 

 

 

 

 

rapidgator.net

 

 

 

 

 

 

 

 

http://shrt10.com/7euN43

 

 

 

 

 

 

Watch M-1 Challenge 86 2017 11 24 720p / Prelims

Support HVIPS

Please Disable Ad-Block To View This site. just help us to continue this work