Watch Lucha Underground S04E09 1080p WEB HEEL

Watch Lucha Underground S04E09 1080p WEB HEEL

 

 

 

 


 

 

 

dx-tv.com

 

 

 

 

 

Complete name : Lucha.Underground.S04E09.1080p.WEB.h264-HEEL.mp4
Format : MPEG-4
Format profile : Base Media
File size : 1.39 GiB
Duration : 44 min 34 s
Overall bit rate mode : Constant
Overall bit rate : 4 449 kb/s
Movie name : Lucha
Law rating : TV-PG
Writing application : Lavf58.2.103

Video
ID : 1
Format : AVC
Format/Info : Advanced Video Codec
Codec ID : avc1
Codec ID/Info : Advanced Video Coding
Duration : 44 min 34 s
Bit rate mode : Constant
Bit rate : 4 300 kb/s
Width : 1 920 pixels
Height : 1 080 pixels
Display aspect ratio : 16:9
Frame rate mode : Variable
Frame rate : 29.970 (30000/1001) FPS
Minimum frame rate : 18.599 FPS
Maximum frame rate : 30.020 FPS
Color space : YUV
Chroma subsampling : 4:2:0
Bit depth : 8 bits
Scan type : Progressive
Bits/(Pixel*Frame) : 0.069
Stream size : 1.34 GiB (97%)

Audio
ID : 2
Format : AAC
Format/Info : Advanced Audio Codec
Format profile : LC
Codec ID : mp4a-40-2
Duration : 44 min 34 s
Bit rate mode : Constant
Bit rate : 126 kb/s
Channel(s) : 2 channels
Channel positions : Front: L R
Sampling rate : 44.1 kHz
Frame rate : 43.066 FPS (1024 SPF)
Compression mode : Lossy
Stream size : 40.1 MiB (3%)
Default : Yes
Alternate group : 1
 

 

 

 

 

 

 

Watch Lucha Underground S04E09 1080p WEB HEEL

 

 

 

 

Watch online

 

 

Waiting finish converting video

 

 

Server 1

 

 

 

 

 

 

 

 

 

 

 

 

 

 

 

 

 

 

 

 

Server 2

 

 

 

 

 

 

 


 

 

 

 

 

 

 

 

Uploaded By Site DX-TV.com

 

 

 

open rar file to see this password

 

 

 

 

The password : DX-TV.com

 

 

 

 

Uploaded.net + rapidgator.net

 

 

 

 

 

 

http://shrt10.com/nKZZX

 

 

 

 

 

 

http://shrt10.com/hnMPRSpX

 

 

 

 

 

 

 

Watch Lucha Underground S04E09 1080p WEB HEEL

This site uses Akismet to reduce spam. Learn how your comment data is processed.

Support HVIPS

Please Disable Ad-Block To View This site. just help us to continue this work