Watch LFA 36 HDTV x264 DX-TV

Watch LFA 36 HDTV x264 DX-TV

 

 

s

 

 

 

wwe

 

 

 

 

 

 

 
Complete name : Lfa 36 – HDTV x264 DX-TV.mp4
Format : MPEG-4
Format profile : Base Media / Version 2
Codec ID : mp42
File size : 1.38 GiB
Duration : 2h 0mn
Overall bit rate : 1 631 Kbps
Encoded date : UTC 2018-03-25 08:38:32
Tagged date : UTC 2018-03-25 08:38:32

Video
ID : 1
Format : AVC
Format/Info : Advanced Video Codec
Format profile : Main@L3.1
Codec ID : avc1
Codec ID/Info : Advanced Video Coding
Duration : 2h 0mn
Bit rate mode : Variable
Bit rate : 1 500 Kbps
Width : 960 pixels
Height : 528 pixels
Display aspect ratio : 16:9
Frame rate mode : Variable
Frame rate : 29.970 fps
Minimum frame rate : 14.985 fps
Maximum frame rate : 29.970 fps
Color space : YUV
Chroma subsampling : 4:2:0
Bit depth : 8 bits
Scan type : Progressive
Bits/(Pixel*Frame) : 0.099
Stream size : 1.26 GiB (92%)

Audio
ID : 2
Format : AAC
Format/Info : Advanced Audio Codec
Format profile : LC
Codec ID : 40
Duration : 2h 0mn
Bit rate mode : Variable
Bit rate : 128 Kbps
Channel(s) : 2 channels
Channel positions : Front: L R
Sampling rate : 48.0 KHz
Compression mode : Lossy
Stream size : 111 MiB (8%)
Title : Stereo
Language : English
Encoded date : UTC 2018-03-25 08:38:32
Tagged date : UTC 2018-03-25 08:38:32

 

 

 

 

 

Watch LFA 36 HDTV x264 DX-TV

 

 

 

 

Watch online

 

 

Waiting finish converting video

 

 

Server 1

 

 

 

 

 

 

 

 

 

 

 

 

 

 

 

 

Server 2

 

 

 

 

 

 

 


 

 

 

 

 

Uploaded By Site DX-TV.com

 

 

 

open rar file to see this password

 

 

 

 

The password is : DX-TV.com

 

 

 

 

 

 

Uploaded.net + rapidgator.net

 

 

 

 

 

 

 

http://shrt10.com/OhLzEQ8E

 

 

 

 

http://shrt10.com/wppiJS2g

 

 

 

 

 

 

 

 

 

Watch LFA 36 HDTV x264 DX-TV

Support HVIPS

Please Disable Ad-Block To View This site. just help us to continue this work