Watch LFA 33 Willis vs Stewart HDTV x264 DX-TV

Watch LFA 33 Willis vs Stewart HDTV x264 DX-TV

 

 

 

 

wwe

 

 

 

 

 

 

Complete name : LFA 33 Willis vs Stewart HDTV x264 DX-TV.mp4
Format : MPEG-4
Format profile : Base Media / Version 2
Codec ID : mp42
File size : 1.58 GiB
Duration : 2h 15mn
Overall bit rate : 1 668 Kbps
Encoded date : UTC 2018-02-18 00:37:47
Tagged date : UTC 2018-02-18 00:37:47

Video
ID : 1
Format : AVC
Format/Info : Advanced Video Codec
Codec ID : avc1
Codec ID/Info : Advanced Video Coding
Duration : 2h 15mn
Bit rate mode : Variable
Bit rate : 1 500 Kbps
Width : 720 pixels
Height : 480 pixels
Display aspect ratio : 3:2
Frame rate mode : Constant
Frame rate : 29.970 fps
Standard : NTSC
Color space : YUV
Chroma subsampling : 4:2:0
Bit depth : 8 bits
Scan type : Progressive
Bits/(Pixel*Frame) : 0.145
Stream size : 1.42 GiB (90%)

Audio
ID : 2
Format : AAC
Format/Info : Advanced Audio Codec
Format profile : LC
Codec ID : 40
Duration : 2h 15mn
Bit rate mode : Variable
Bit rate : 160 Kbps
Channel(s) : 2 channels
Channel positions : Front: L R
Sampling rate : 48.0 KHz
Compression mode : Lossy
Stream size : 155 MiB (10%)
Title : Stereo
Language : English
Encoded date : UTC 2018-02-18 00:37:47
Tagged date : UTC 2018-02-18 00:37:47

 

 

 

 

 

 

 

 

 

 

 

Watch LFA 33 Willis vs Stewart HDTV x264 DX-TV

 

 

 

 

Watch online

 

 

Waiting finish converting video

 

 

Server 1

 

 

 

 

 

 

 

 

 

 

 

 

 

 

 

 

 

 

 

Server 2

 

 

 

 

 

 

 


 

 

 

 

 

 

Uploaded By Site DX-TV.com

 

 

 

open rar file to see this password

 

 

 

 

The password is : DX-TV.com

 

 

 

 

 

 

Uploaded.net + rapidgator.net

 

 

 

 

 

 

 

http://shrt10.com/Lng0mKJ

 

 

 

 

 

http://shrt10.com/ptphiKbI

 

 

 

 

 

 

 

 

Watch LFA 33 Willis vs Stewart HDTV x264 DX-TV