Watch LFA 28 Jackson vs Luna HDTV 720p HDTV x264 DX-TV

Watch LFA 28 Jackson vs Luna HDTV 720p HDTV x264 DX-TV

 

 

 

 

 

 

wwe

 

 

 

 

 

 

 

 

 

Complete name : LFA 28-Jackson vs. Luna_HDTV 720p_EN.m4v
Format : MPEG-4
Format profile : Base Media / Version 2
Codec ID : mp42
File size : 2.95 GiB
Duration : 2h 13mn
Overall bit rate : 3 172 Kbps

Video
ID : 1
Format : AVC
Format/Info : Advanced Video Codec
Codec ID : avc1
Codec ID/Info : Advanced Video Coding
Duration : 2h 13mn
Bit rate mode : Variable
Bit rate : 3 000 Kbps
Width : 1 280 pixels
Height : 720 pixels
Display aspect ratio : 16:9
Frame rate mode : Variable
Frame rate : 29.970 fps
Minimum frame rate : 14.985 fps
Maximum frame rate : 29.970 fps
Color space : YUV
Chroma subsampling : 4:2:0
Bit depth : 8 bits
Scan type : Progressive
Bits/(Pixel*Frame) : 0.109
Stream size : 2.79 GiB (95%)
Audio
ID : 2
Format : AAC
Format/Info : Advanced Audio Codec
Format profile : LC
Codec ID : 40
Duration : 2h 13mn
Bit rate mode : Variable
Bit rate : 160 Kbps
Channel(s) : 2 channels
Channel positions : Front: L R
Sampling rate : 48.0 KHz
Compression mode : Lossy
Stream size : 152 MiB (5%)
Title : Stereo
Language : English
Encoded date : UTC 2017-12-09 09:41:36
Tagged date : UTC 2017-12-09 09:41:36

 

 

 

 

 

 

 

 

 

 

 

 

 

 

 

Watch LFA 28 Jackson vs Luna HDTV 720p HDTV x264 DX-TV

 

 

 

 

Watch online

 

 

Waiting finish converting video

 

 

Server 1

 

 

 

 

 

 

 

 

 

 

 

 

 

 

 

 

 

 

 

 

Server 2

 

 

 

 

 

 

 

 


 

 

 

 

 

 

 

 

Srver 3

 

 

 

 

 

 

 

 

 

 


 

 

 

 

 

 

 

 

Uploaded By Site DX-TV.com

 

 

 

open rar file to see this password

 

 

 

 

The password is : DX-TV.com

 

 

 

 

720p

 

 

 

Uploaded.net

 

 

 

 

 

 

 

http://shrt10.com/JYM2M3mO

 

 

 

 

 

 

 

rapidgator.net

 

 

 

 

 

 

 

http://shrt10.com/tAEU8Wq

 

 

 

 

 

 

 

 

Watch LFA 28 Jackson vs Luna HDTV 720p HDTV x264 DX-TV

Support HVIPS

Please Disable Ad-Block To View This site. just help us to continue this work