Watch Legends of Extreme S03E09 November to Remember

Watch Legends of Extreme S03E09 November to Remember

 

 

 

 

 

wwe

 

 

 

 

 

 

 

 

 

 
Complete name : Legends of Extreme S03E09 November to Remember.mp4
Format : MPEG-4
Format profile : Base Media
Codec ID : isom
File size : 780 MiB
Duration : 1h 8mn
Overall bit rate : 1 602 Kbps
Writing application : Lavf55.12.100

Video
ID : 2
Format : AVC
Format/Info : Advanced Video Codec
Codec ID : avc1
Codec ID/Info : Advanced Video Coding
Duration : 1h 8mn
Bit rate mode : Variable
Bit rate : 1 494 Kbps
Width : 854 pixels
Height : 480 pixels
Display aspect ratio : 16:9
Frame rate mode : Constant
Frame rate : 29.970 fps
Color space : YUV
Chroma subsampling : 4:2:0
Bit depth : 8 bits
Scan type : Progressive
Bits/(Pixel*Frame) : 0.122
Stream size : 728 MiB (93%)

Audio
ID : 1
Format : AAC
Format/Info : Advanced Audio Codec
Format profile : LC
Codec ID : 40
Duration : 1h 8mn
Bit rate mode : Variable
Bit rate : 101 Kbps
Maximum bit rate : 146 Kbps
Channel(s) : 2 channels
Channel positions : Front: L R
Sampling rate : 48.0 KHz
Compression mode : Lossy
Stream size : 49.2 MiB (6%)

 

 

 

 

 

Legends of Extreme November to Remember S3 Ep 9
Video Duration: 01:08:05

On this episode of Legends of Extreme we go back to discuss one of ECW’s biggest shows every year the November to Remember. Join our esteemed panel of Shane Douglas, Francine, and New Jack along with our host Mike Johnson as we disect and discuss ECW’s November to Remember.
 

 

 

 

 

 

 

 

 

 

 

 

 

Watch Legends of Extreme S03E09 November to Remember

 

 

 

 

Watch online

 

 

Waiting finish converting video

 

 

Server 1

 

 

 

 

 

 

 

 

 

 

 

 

 

 

 

 

 

 

 

Server 2

 

 

 

 

 

 

 

 


 

 

 

 

 

 

Uploaded By Site DX-TV.com

 

 

 

open rar file to see this password

 

 

 

 

The password is : DX-TV.com

 

 

 

 

 

 

Uploaded.net + rapidgator.net

 

 

 

 

 

 

 

http://shrt10.com/1rE16y

 

 

 

 

 

http://shrt10.com/FgoIR2J0

 

 

 

 

 

 

 

 

Watch Legends of Extreme S03E09 November to Remember