Watch Legends of Extreme S03E08 Road Stories Vol 3

Watch Legends of Extreme S03E08 Road Stories Vol 3

 

 

 

 

 

 

wwe

 

 

 

 

 

 

 
Complete name : Legends of Extreme S03E08 Road Stories Vol. 3.mp4
Format : MPEG-4
Format profile : Base Media
Codec ID : isom
File size : 780 MiB
Duration : 1h 8mn
Overall bit rate : 1 603 Kbps
Writing application : Lavf55.12.100

Video
ID : 2
Format : AVC
Format/Info : Advanced Video Codec
Codec ID : avc1
Codec ID/Info : Advanced Video Coding
Duration : 1h 8mn
Bit rate mode : Variable
Bit rate : 1 494 Kbps
Width : 854 pixels
Height : 480 pixels
Display aspect ratio : 16:9
Frame rate mode : Constant
Frame rate : 29.970 fps
Color space : YUV
Chroma subsampling : 4:2:0
Bit depth : 8 bits
Scan type : Progressive
Bits/(Pixel*Frame) : 0.122
Stream size : 727 MiB (93%)

Audio
ID : 1
Format : AAC
Format/Info : Advanced Audio Codec
Format profile : LC
Codec ID : 40
Duration : 1h 8mn
Bit rate mode : Variable
Bit rate : 102 Kbps
Maximum bit rate : 146 Kbps
Channel(s) : 2 channels
Channel positions : Front: L R
Sampling rate : 48.0 KHz
Compression mode : Lossy
Stream size : 49.5 MiB (6%)

 

 

 

 

 

 

 

 

 

 

 

 

 

 

 

 

 

 

Watch Legends of Extreme S03E08 Road Stories Vol 3

 

 

 

 

Watch online

 

 

Waiting finish converting video

 

 

Server 1

 

 

 

 

 

 

 

 

 

 

 

 

 

 

 

 

 

 

 

Server 2

 

 

 

 

 

 

 

 

 


 

 

 

 

Uploaded By Site DX-TV.com

 

 

 

open rar file to see this password

 

 

 

 

The password is : DX-TV.com

 

 

 

 

400p+720p

 

 

 

 

 

Uploaded.net + rapidgator.net

 

 

 

 

 

 

 

http://shrt10.com/HmtHT5P

 

 

 

 

 

http://shrt10.com/YtszF

 

 

 

 

 

 

 

 

Watch Legends of Extreme S03E08 Road Stories Vol 3