Watch Legends of Extreme S03E02 – ECW Characters mp4

Watch Legends of Extreme S03E02 – ECW Characters mp4

 

 

 

 

 

 

wwe

 

 

 

 

 

 

Complete name : Legends of Extreme S03E02 – ECW Characters.mp4
Format : MPEG-4
Format profile : Base Media
Codec ID : isom
File size : 740 MiB
Duration : 1h 4mn
Overall bit rate : 1 601 Kbps

Video
ID : 1
Format : AVC
Format/Info : Advanced Video Codec
Format settings, ReFrames : 3 frames
Codec ID : avc1
Codec ID/Info : Advanced Video Coding
Duration : 1h 4mn
Bit rate mode : Variable
Bit rate : 1 493 Kbps
Width : 854 pixels
Height : 480 pixels
Display aspect ratio : 16:9
Frame rate mode : Constant
Frame rate : 29.970 fps
Color space : YUV
Chroma subsampling : 4:2:0
Bit depth : 8 bits
Scan type : Progressive
Bits/(Pixel*Frame) : 0.122
Stream size : 690 MiB (93%)

Audio
ID : 2
Format/Info : Advanced Audio Codec
Codec ID : 40
Duration : 1h 4mn
Bit rate mode : Constant
Bit rate : 101 Kbps
Channel(s) : 3 channels
Channel positions : Front: L C R
Sampling rate : 64.0 KHz
Compression mode : Lossy
Stream size : 46.6 MiB (6%)

 

 

 

 

 

 

 

On this episode join host Mike Johnson with guests New Jack, Shane Douglas,
and the Blue MEanie as they explore the wild characters that ECW was known for.
Sit back and take a stroll down memory lane a relive some the most insane
and extreme personalities in all of wrestling. This week on Legends of Extreme.
 

 

 

 

 

 

 

Watch Legends of Extreme S03E02 – ECW Characters mp4

 

 

 

 

Watch online

 

 

Waiting finish converting video

 

 

Server 1

 

 

 

 

 

 

 

 

 

 

 

 

 

 

 

 

 

 

 

 

Server 2

 

 

 

 

 

 

 

 

 

 

 

 

 


 

 

 

 

 

 

 

 

Uploaded By Site DX-TV.com

 

 

 

open rar file to see this password

 

 

 

 

The password is : DX-TV.com

 

 

 

 

 

 

 

 

 

rapidgator.net

 

 

 

 

 

 

 

 

 

 

http://shrt10.com/3AuK

 

 

 

 

 

 

 

 

 

 

 

Watch Legends of Extreme S03E02 – ECW Characters mp4