Watch KSW 42 PPV 2018 03 06 HDTV XviD KRT

Watch KSW 42 PPV 2018 03 06 HDTV XviD KRT

 

 

s

 

 

 

wwe

 

 

 

 

 

 

 

 
Complete name : KSW.42.PPV.HDTV.XviD.AC3-KRT.avi
Format : AVI
Format/Info : Audio Video Interleave
Format profile : OpenDML
File size : 3.94 GiB
Duration : 4h 56mn
Overall bit rate : 1 902 Kbps

Video
ID : 0
Format : MPEG-4 Visual
Format settings, : 2
settings, : No
Format settings, : No warppoints
Format settings,  : Default (H.263)
Muxing mode : Packed bitstream
Codec ID : XVID
Codec ID/Hint : XviD
Duration : 4h 56mn
Bit rate : 1 700 Kbps
Width : 720 pixels
Height : 400 pixels
Display aspect ratio : 16:9
Frame rate : 25.000 fps
Color space : YUV
Chroma subsampling : 4:2:0
Bit depth : 8 bits
Scan type : Progressive
Compression mode : Lossy
Bits/(Pixel*Frame) : 0.236
Stream size : 3.53 GiB (89%)
Writing library : XviD 65

Audio
ID : 1
Format : AC-3
Mode extension : CM (complete main)
Codec ID : 2000
Duration : 4h 56mn
Bit rate mode : Constant
Bit rate : 192 Kbps
Channel(s) : 2 channels
Channel positions : Front: L R
Sampling rate : 48.0 KHz
Bit depth : 16 bits
Compression mode : Lossy
Stream size : 408 MiB (10%)

 

 

 

 

 

 

 

 

 

 

Watch KSW 42 PPV 2018 03 06 HDTV XviD KRT

 

 

 

 

Watch online

 

 

Waiting finish converting video

 

 

Server 1

 

 

 

 

 

 

 

 

 

 

 

 

 

 

 

 

Server 2

 

 

 

 

 

 


 

 

 

 

 

 

Uploaded By Site DX-TV.com

 

 

 

open rar file to see this password

 

 

 

 

The password is : DX-TV.com

 

 

 

 

 

 

Uploaded.net + rapidgator.net

 

 

 

 

 

 

http://shrt10.com/VgvG

 

 

 

 

http://shrt10.com/FYYeu

 

 

 

 

 

 

 

 

 

 

Watch KSW 42 PPV 2018 03 06 HDTV XviD KRT