KC Back to the Territories Amarillo with Terry Funk Watch / Download

KC Back to the Territories Amarillo with Terry Funk Watch / Download

 

 

 

 


 

dx-tv.com

 

 

 

 

 
Complete name : KC Back to the Territories – Amarillo with Terry Funk.mp4
Format : MPEG-4
Format profile : Base Media
Codec ID : isom
File size : 1.27 GiB
Duration : 2h 13mn
Overall bit rate : 1 353 Kbps
Encoded date : UTC 2016-10-21 22:17:20
Tagged date : UTC 2016-10-21 22:17:20

Video
ID : 1
Format : AVC
Format/Info : Advanced Video Codec
Codec ID : avc1
Codec ID/Info : Advanced Video Coding
Duration : 2h 13mn
Bit rate mode : Variable
Bit rate : 1 194 Kbps
Maximum bit rate : 10.4 Mbps
Width : 640 pixels
Height : 360 pixels
Display aspect ratio : 16:9
Frame rate mode : Constant
Frame rate : 29.970 fps
Color space : YUV
Chroma subsampling : 4:2:0
Bit depth : 8 bits
Scan type : Progressive
Bits/(Pixel*Frame) : 0.173
Stream size : 1.12 GiB (88%)

Audio
ID : 2
Format : AAC
Format/Info : Advanced Audio Codec
Format profile : LC
Codec ID : 40
Duration : 2h 13mn
Bit rate mode : Variable
Bit rate : 155 Kbps
Maximum bit rate : 199 Kbps
Channel(s) : 2 channels
Channel positions : Front: L R
Sampling rate : 48.0 KHz
Compression mode : Lossy
Stream size : 148 MiB (11%)
Encoded date : UTC 2016-10-21 21:26:20
Tagged date : UTC 2016-10-21 22:19:00

 

 

 

 

KC Back to the Territories Amarillo with Terry Funk Watch / Download

 

 

 

 

Watch online

 

 

Waiting finish converting video

 

 

Server 1

 

 

 

 

 

 

 

 

 

 

 

 

 

 

 

Server 2

 

 

 

 

 

 

 

 

 

 

 

 

Uploaded By Site DX-TV.com

 

 

 

open rar file to see this password

 

 

 

 

The password : DX-TV.com

 

 

 

 

Uploaded.net + rapidgator.net

 

 

 

 

 

 
http://shrt10.com/ZdUfcR

 
http://shrt10.com/ufK2VWE
 

 

 

 

 

 

 

KC Back to the Territories Amarillo with Terry Funk Watch / Download

Support HVIPS

Please Disable Ad-Block To View This site. just help us to continue this work