Watch KC Back to the Territories Puerto Rico

Watch KC Back to the Territories Puerto Rico

 

 

 

 

 

 

wwe

 

 

 

 

 

 

Complete name : KC Back to the Territories Puerto Rico.mp4
Format : MPEG-4
Format profile : Base Media
Codec ID : isom
File size : 1.05 GiB
Duration : 1h 44mn
Overall bit rate : 1 426 Kbps
Encoded date : UTC 2017-10-02 23:00:19
Tagged date : UTC 2017-10-02 23:00:19

Video
ID : 1
Format : AVC
Format/Info : Advanced Video Codec
Codec ID : avc1
Codec ID/Info : Advanced Video Coding
Duration : 1h 44mn
Bit rate mode : Variable
Bit rate : 1 269 Kbps
Maximum bit rate : 6 656 Kbps
Width : 640 pixels
Height : 360 pixels
Display aspect ratio : 16:9
Frame rate mode : Constant
Frame rate : 29.970 fps
Color space : YUV
Chroma subsampling : 4:2:0
Bit depth : 8 bits
Scan type : Progressive
Bits/(Pixel*Frame) : 0.184
Stream size : 952 MiB (89%)

Audio
ID : 2
Format : AAC
Format/Info : Advanced Audio Codec
Format profile : LC
Codec ID : 40
Duration : 1h 44mn
Bit rate mode : Variable
Bit rate : 152 Kbps
Maximum bit rate : 198 Kbps
Channel(s) : 2 channels
Channel positions : Front: L R
Sampling rate : 48.0 KHz
Compression mode : Lossy
Stream size : 114 MiB (11%)
Language : English
Encoded date : UTC 2017-10-02 22:14:05
Tagged date : UTC 2017-10-02 23:00:51

 

 

 

 

 

 

 

 

 

 

 

 

 

 

 

 

 

 

Watch KC Back to the Territories Puerto Rico

 

 

 

 

Watch online

 

 

Waiting finish converting video

 

 

Server 1

 

 

 

 

 

 

 

 

 

 

 

 

 

 

 

 

 

 

 

 

 

 

 

 

 

 

 

Server 2

 

 

 

 

 

 

 

 

 

 

 


 

 

 

 

 

 

 

 

 

Uploaded By Site DX-TV.com

 

 

 

open rar file to see this password

 

 

 

 

The password is : DX-TV.com

 

 

 

 

 

 

 

 

rapidgator.net

 

 

 

 

 

 

 

http://shrt10.com/NMpTYO21

 

 

 

 

 

 

 

Watch KC Back to the Territories Puerto Rico