Watch IWA MS 2018 02 01 We Are IWA WEB NCMP

Watch IWA MS 2018 02 01 We Are IWA WEB NCMP

 

 

 

 

 

wwe

 

 

 

 

 

 
Complete name : IWA-MS.2018.02.01.We.Are.IWA.WEB.h264-NCMP.mp4
Format : MPEG-4
Format profile : Base Media
Codec ID : isom
File size : 1.52 GiB
Duration : 2h 41mn
Overall bit rate : 1 341 Kbps
Writing application : Lavf55.12.100

Video
ID : 2
Format : AVC
Format/Info : Advanced Video Codec
Codec ID : avc1
Codec ID/Info : Advanced Video Coding
Duration : 2h 41mn
Bit rate mode : Variable
Bit rate : 1 200 Kbps
Width : 854 pixels
Height : 480 pixels
Display aspect ratio : 16:9
Original display aspect ratio : 16:9
Frame rate mode : Constant
Frame rate : 29.970 fps
Color space : YUV
Chroma subsampling : 4:2:0
Bit depth : 8 bits
Scan type : Progressive
Bits/(Pixel*Frame) : 0.098
Stream size : 1.36 GiB (90%)

Audio
ID : 1
Format : AAC
Format/Info : Advanced Audio Codec
Format profile : LC
Codec ID : 40
Duration : 2h 41mn
Bit rate mode : Constant
Bit rate : 128 Kbps
Channel(s) : 2 channels
Channel positions : Front: L R
Sampling rate : 44.1 KHz
Compression mode : Lossy
Stream size : 148 MiB (10%)

 

 

 

 

 

 

 

 

 

 

 

 

Watch IWA MS 2018 02 01 We Are IWA WEB NCMP

 

 

 

 

Watch online

 

 

Waiting finish converting video

 

 

Server 1

 

 

 

 

 

 

 

 

 

 

 

 

 

 

 

 

 

 

 

Server 2

 

 

 

 

 

 

 

 

 


 

 

 

 

 

 

 

Uploaded By Site DX-TV.com

 

 

 

open rar file to see this password

 

 

 

 

The password is : DX-TV.com

 

 

 

 

 

 

Uploaded.net + rapidgator.net

 

 

 

 

 

 

http://shrt10.com/PTmcM2

 

 

 

 

 

http://shrt10.com/1Om7fja

 

 

 

 

 

 

 

 

 

Watch IWA MS 2018 02 01 We Are IWA WEB NCMP

Support HVIPS

Please Disable Ad-Block To View This site. just help us to continue this work