Watch IWA MS 2017 10 12 21st Anniversary Show WEB DL

Watch IWA MS 2017 10 12 21st Anniversary Show WEB DL

 

 

 

 

 

wwe

 

 

 

 

 

 

 

Complete name : IWA-MS.2017.10.12.21st.Anniversary.Show.WEB-DL.mp4
Format : MPEG-4
Format profile : Base Media / Version 2
Codec ID : mp42
File size : 2.82 GiB
Duration : 3h 8mn
Overall bit rate : 2 135 Kbps
Encoded date : UTC 2017-10-17 14:05:27
Tagged date : UTC 2017-10-17 14:08:58

Video
ID : 1
Format : AVC
Format/Info : Advanced Video Codec
Codec ID : avc1
Codec ID/Info : Advanced Video Coding
Duration : 3h 8mn
Bit rate mode : Variable
Bit rate : 2 003 Kbps
Width : 854 pixels
Height : 480 pixels
Display aspect ratio : 16:9
Frame rate mode : Constant
Frame rate : 29.970 fps
Color space : YUV
Chroma subsampling : 4:2:0
Bit depth : 8 bits
Scan type : Progressive
Bits/(Pixel*Frame) : 0.163
Stream size : 2.64 GiB (94%)
Language : English

Audio
ID : 2
Format : AAC
Format/Info : Advanced Audio Codec
Format profile : LC
Codec ID : 40
Duration : 3h 8mn
Bit rate mode : Constant
Bit rate : 128 Kbps
Channel(s) : 2 channels
Channel positions : Front: L R
Sampling rate : 48.0 KHz
Compression mode : Lossy
Stream size : 173 MiB (6%)
Language : English
Encoded date : UTC 2017-10-17 14:05:18
Tagged date : UTC 2017-10-17 14:08:58

 

 

 

 

 

 
1. Opportunity In A Box Ladder Match: Chase Holiday vs. Dale Patricks vs. Dom Bambino vs. Jah C. vs. JC Rotten vs. Justin Storm vs. Markus Crane vs. Sage Cainan vs. Sage Phillips vs. Shane Bender vs. Steve Manders
2. Ace Perry vs. Dave Crist
3. Jeff Cobb vs. Shane Mercer
4. Kongo Kong vs. Zodiak
5. Larry D vs. Shigehiro Irie
6. Billy Gunn vs. Calvin Tankman
7. Eddie Kingston vs. Mance Warner
8. Cole Radrick vs. Matt Knicks
9. IWA Mid-South Heavyweight Championship: Aaron Williams(c) vs. Maxwell Jacob Friedman
 

 

 

 

 

 

 

 

 

 

 

Watch IWA MS 2017 10 12 21st Anniversary Show WEB DL

 

 

 

 

Watch online

 

 

Waiting finish converting video

 

 

Server 1

 

 

 

 

 

 

 

 

 

 

 

 

 

 

 

 

 

 

 

 

Server 2

 

 

 

 

 

 

 

 

 

 


 

 

 

 

 

 

 

 

 

 

 

Uploaded By Site DX-TV.com

 

 

 

open rar file to see this password

 

 

 

 

The password is : DX-TV.com

 

 

 

 

 

 

 

 

 

rapidgator.net

 

 

 

 

 

 

 

 

http://shrt10.com/XGjLY

 

 

 

 

 

 

 

 

 

 

 

 

 

Watch IWA MS 2017 10 12 21st Anniversary Show WEB DL