Watch IWA Mid South Kings of the Crimson Mask 2 0- 2017 09 16

Watch IWA Mid South Kings of the Crimson Mask 2 0- 2017 09 16

 

 

 

 

 

wwe

 

 

 

 

 

 

 

Complete name : IWA Mid-South Kings of the Crimson Mask 2.0.mp4
Format : MPEG-4
Codec ID : mp42
File size : 2.36 GiB
Duration : 2h 38mn
Overall bit rate : 2 128 Kbps

Video
ID : 1
Format : AVC
Format/Info : Advanced Video Codec
Codec ID : avc1
Codec ID/Info : Advanced Video Coding
Duration : 2h 38mn
Bit rate mode : Variable
Bit rate : 1 996 Kbps
Width : 854 pixels
Height : 480 pixels
Display aspect ratio : 16:9
Frame rate mode : Constant
Frame rate : 29.970 fps
Color space : YUV
Chroma subsampling : 4:2:0
Bit depth : 8 bits
Scan type : Progressive
Bits/(Pixel*Frame) : 0.162
Stream size : 2.21 GiB (94%)
Language : English

Audio
ID : 2
Format : AAC
Format/Info : Advanced Audio Codec
Format profile : LC
Codec ID : 40
Duration : 2h 38mn
Bit rate mode : Constant
Bit rate : 128 Kbps
Channel(s) : 2 channels
Channel positions : Front: L R
Sampling rate : 48.0 KHz
Compression mode : Lossy
Stream size : 145 MiB (6%)
Language : English

 

 

 

 

 

 
1. Barbed Wire Wrapped Ropes: David Skitz vs. Justin Storm
2. Dog Collar: Devon Moore vs. Eddie Kingston
3. Carpet Strips & Thumbtacks: Toby Klein vs. Zodiak
4. Barbed Wire Boards & Bat: BC Killer vs. Mance Warner
5. Loose Tubes & Mirrors: Brad Cash vs. Travis Dykes
6. Fans Bring The Weapons: Insane Lane & JC Rotten vs. Ludark Shaitan & Sage Sin
7. Blades Of Steel, Gussett Plates, Four Corners Of Pain: Bryant Woods vs. Dale Patricks vs. JD Horror
 

 

 

 

 

 

 

 

 

 

 

Watch IWA Mid South Kings of the Crimson Mask 2 0- 2017 09 16

 

 

 

 

Watch online

 

 

Waiting finish converting video

 

 

Server 1

 

 

 

 

 

 

 

 

 

 

 

 

 

 

 

 

 

 

 

 

Server 2

 

 

 

 

 

 

 

 

 

 

 

 


 

 

 

 

 

 

 

 

 

 

 

 

 

 

 

 

rapidgator.net

 

 

 

 

 

 

 

 

 

 

http://shrt10.com/cZiHCU

 

 

 

 

 

 

 

 

 

 

 

Watch IWA Mid South Kings of the Crimson Mask 2 0- 2017 09 16