Watch IWA-Mid South Guardians Of Hardcore 2018 01 27

Watch IWA-Mid South Guardians Of Hardcore 2018 01 27

 

 

 

 

 

 

wwe

 

 

 

 

 

 

Complete name : iwa-mid-south-01-27-2018.mp4
Format : MPEG-4
Format profile : Base Media / Version 2
Codec ID : mp42
File size : 2.59 GiB
Duration : 2h 53mn
Overall bit rate : 2 128 Kbps
Encoded date : UTC 2018-01-30 03:54:31
Tagged date : UTC 2018-01-30 03:56:09

Video
ID : 1
Format : AVC
Format/Info : Advanced Video Codec
Codec ID : avc1
Codec ID/Info : Advanced Video Coding
Duration : 2h 53mn
Bit rate mode : Variable
Bit rate : 1 996 Kbps
Width : 854 pixels
Height : 480 pixels
Display aspect ratio : 16:9
Frame rate mode : Constant
Frame rate : 29.970 fps
Color space : YUV
Chroma subsampling : 4:2:0
Bit depth : 8 bits
Scan type : Progressive
Bits/(Pixel*Frame) : 0.162
Stream size : 2.43 GiB (94%)
Language : English

Audio
ID : 2
Format : AAC
Format/Info : Advanced Audio Codec
Format profile : LC
Codec ID : 40
Duration : 2h 53mn
Bit rate mode : Constant
Bit rate : 128 Kbps
Channel(s) : 2 channels
Channel positions : Front: L R
Sampling rate : 48.0 KHz
Compression mode : Lossy
Stream size : 159 MiB (6%)
Language : English
Encoded date : UTC 2018-01-30 03:54:24
Tagged date : UTC 2018-01-30 03:56:09

 

 

 

 

IWA Mid-South January 27, 2018 “Guardians Of Hardcore” – Memphis, IN 

1. Eddie Kingston vs. Spyder Nate Webb 
2. Electrified Light Bulbs, Electrified Light Tubes & Cinder Blocks Death Match: Masada vs. Brad Cash 
3. World Series Of Glass Death Match: Ludark Shaitan vs. Kikyo 
4. Homerun Derby Death Match: Mance Warner vs. JC Rotten 
5. DLC Death Match: Bryant Woods vs. Rob Marsh 
6. Fans Bring The Weapons Death Match: The Rejects vs. Young Dragons vs. Los Macizos 
7. Shopping Cart Death Match: Homeless Jimmy vs. Markus Crane 
8. House Of Horrors Death Match: Rickey Shane Page vs. Nick Gage

 

Watch IWA-Mid South Guardians Of Hardcore 2018 01 27

 

 

 

 

Watch online

 

 

Waiting finish converting video

 

 

Server 1

 

 

 

 

 

 

 

 

 

 

 

 

 

 

 

 

 

Server 2

 

 

 

 

 

 

 

 

 

 

 


 

 

 

 

Uploaded By Site DX-TV.com

 

 

 

open rar file to see this password

 

 

 

 

The password is : DX-TV.com

 

 

 

 

 

 

Uploaded.net + rapidgator.net

 

 

 

 

 

 

http://shrt10.com/cGKurVv

 

 

 

 

http://shrt10.com/MNKY12

 

 

 

 

 

 

 

 

 

 

Watch IWA-Mid South Guardians Of Hardcore 2018 01 27