Watch Invicta FC 28 WEB DL /720p

Watch Invicta FC 28 WEB DL /720p

 

 

 

 

 

 

wwe

 

 

 

 

 

Complete name : Invicta.FC.28.WEB-DL.mp4
Format : MPEG-4
Format profile : Base Media
Codec ID : isom
File size : 2.98 GiB
Duration : 4h 38mn
Overall bit rate : 1 528 Kbps
Writing application : Lavf56.40.101

Video
ID : 1
Format : AVC
Format/Info : Advanced Video Codec
Format profile : Main@L3.1
Codec ID : avc1
Codec ID/Info : Advanced Video Coding
Duration : 4h 38mn
Bit rate mode : Variable
Bit rate : 1 441 Kbps
Width : 960 pixels
Height : 540 pixels
Display aspect ratio : 16:9
Frame rate mode : Constant
Frame rate : 29.970 fps
Color space : YUV
Chroma subsampling : 4:2:0
Bit depth : 8 bits
Scan type : Progressive
Bits/(Pixel*Frame) : 0.093
Stream size : 2.81 GiB (94%)

Audio
ID : 2
Format : AAC
Format/Info : Advanced Audio Codec
Format profile : LC
Codec ID : 40
Duration : 4h 38mn
Bit rate mode : Variable
Bit rate : 77.6 Kbps
Maximum bit rate : 83.4 Kbps
Channel(s) : 2 channels
Channel positions : Front: L R
Sampling rate : 44.1 KHz
Compression mode : Lossy
Stream size : 155 MiB (5%)

 

 

 

 

 

 

 

 
[EVENT]: Invicta.FC.28.720p.WEB-DL.mp4
[SIZE]: 8.61 GB
[SOURCE]: Fight Pass
[CONTAINER]: mp4
[RESOLUTION]: 1280 x 720 @ 29.970 FPS
[VIDEO]: H264 @ 4281 Kbps
[AUDIO]: AAC @ 126 kbps
[Length]: 04:38:57
[Language]: English

 

 

 

 

 

 

 

 

 

 

 

Watch Invicta FC 28 WEB DL /720p

 

 

 

 

Watch online

 

 

Waiting finish converting video

 

 

Server 1

 

 

 

 

 

 

 

 

 

 

 

 

 

 

 

 

 

 

 

 

 

Server 2

 

 

 

 

 

 

 

 

 

 

 

 

 

 

 

 

 

Uploaded By Site DX-TV.com

 

 

 

open rar file to see this password

 

 

 

 

The password is : DX-TV.com

 

 

 

 

400p+720p

 

 

 

 

 

Uploaded.net + rapidgator.net

 

 

 

 

 

 

http://shrt10.com/D4Ko6Z

 

 

http://shrt10.com/TBbA7

 

 

http://shrt10.com/AaNziwx

 

 

http://shrt10.com/uDE8tnTs

 

 

http://shrt10.com/Z3Be

 

 

http://shrt10.com/1K6fbWlh

 

 

http://shrt10.com/eZrR2B

 

 

http://shrt10.com/8t0fQsq

 

 

 

 

 

 

 

 

 

Watch Invicta FC 28 WEB DL /720p