Watch Invicta FC 26 WEB /720p

Watch Invicta FC 26 WEB /720p

 

 

 

 

 

 

wwe

 

 

 

 

 

 

Complete name : Invicta.FC.26.WEB-DL.mp4
Format : MPEG-4
Format profile : Base Media
Codec ID : isom
File size : 2.31 GiB
Duration : 3h 36mn
Overall bit rate : 1 528 Kbps
Writing application : Lavf56.40.101

Video
ID : 1
Format : AVC
Format/Info : Advanced Video Codec
Codec ID : avc1
Codec ID/Info : Advanced Video Coding
Duration : 3h 36mn
Bit rate mode : Variable
Bit rate : 1 441 Kbps
Width : 960 pixels
Height : 540 pixels
Display aspect ratio : 16:9
Frame rate mode : Constant
Frame rate : 29.970 fps
Color space : YUV
Chroma subsampling : 4:2:0
Bit depth : 8 bits
Scan type : Progressive
Bits/(Pixel*Frame) : 0.093
Stream size : 2.18 GiB (94%)

Audio
ID : 2
Format : AAC
Format/Info : Advanced Audio Codec
Format profile : LC
Codec ID : 40
Duration : 3h 36mn
Bit rate mode : Variable
Bit rate : 77.6 Kbps
Maximum bit rate : 89.6 Kbps
Channel(s) : 2 channels
Channel positions : Front: L R
Sampling rate : 44.1 KHz
Compression mode : Lossy
Stream size : 120 MiB (5%)

 

 

 

 

 

 
Complete name : Invicta.FC.26.720p.WEB-DL.mp4
Format : MPEG-4
Format profile : Base Media
Codec ID : isom
File size : 6.68 GiB
Duration : 3h 36mn
Overall bit rate : 4 410 Kbps
Writing application : Lavf56.40.101

Video
ID : 1
Format : AVC
Format/Info : Advanced Video Codec
Codec ID : avc1
Codec ID/Info : Advanced Video Coding
Duration : 3h 36mn
Bit rate mode : Variable
Bit rate : 4 273 Kbps
Width : 1 280 pixels
Height : 720 pixels
Display aspect ratio : 16:9
Frame rate mode : Constant
Frame rate : 29.970 fps
Color space : YUV
Chroma subsampling : 4:2:0
Bit depth : 8 bits
Scan type : Progressive
Bits/(Pixel*Frame) : 0.155
Stream size : 6.47 GiB (97%)

Audio
ID : 2
Format : AAC
Format/Info : Advanced Audio Codec
Format profile : LC
Codec ID : 40
Duration : 3h 36mn
Bit rate mode : Variable
Bit rate : 126 Kbps
Maximum bit rate : 154 Kbps
Channel(s) : 2 channels
Channel positions : Front: L R
Sampling rate : 44.1 KHz
Compression mode : Lossy
Stream size : 195 MiB (3%)

 

 

 

 

 

 

 

 

 

 

 

 

Watch Invicta FC 26 WEB /720p

 

 

 

 

Watch online

 

 

Waiting finish converting video

 

 

Server 1

 

 

 

 

 

 

 

 

 

 

 

 

 

 

 

 

 

 

 

 

 

Server 2

 

 

 

 

 

 

 

 

 

 


 

 

 

 

 

Srver 3

 

 

 

 

 

 

 

 

 

 


 

 

 

 

 

 

 

Uploaded By Site DX-TV.com

 

 

 

open rar file to see this password

 

 

 

 

The password is : DX-TV.com

 

 

 

 

400p+720p

 

 

 

Uploaded.net

 

 

 

 

 

 

 

 

http://shrt10.com/pBGLkW

 

 

 

 

 

 

rapidgator.net

 

 

 

 

 

 

 

 

http://shrt10.com/ZMJsKkJ

 

 

 

 

http://shrt10.com/YvdCiue

 

http://shrt10.com/a0Ci

 

http://shrt10.com/xhbEFNn

 

http://shrt10.com/ztvey7

 

 

 

 

 

 

 

 

 

 

 

Watch Invicta FC 26 WEB /720p

Support HVIPS

Please Disable Ad-Block To View This site. just help us to continue this work