Watch ICW 2018 02 11 7th Annual Square Go WEB iNDYHEEL /720p

Watch ICW 2018 02 11 7th Annual Square Go WEB iNDYHEEL /720p

 

 

 

 

 

 

wwe

 

 

 

 

 

 

Complete name : ICW.2018.02.11.7th.Annual.Square.Go.WEB.h264-iNDYHEEL.mp4
Format : MPEG-4
Format profile : Base Media
Codec ID : isom
File size : 1.68 GiB
Duration : 2h 34mn
Overall bit rate : 1 561 Kbps
Writing application : Lavf58.2.103

Video
ID : 1
Format : AVC
Format/Info : Advanced Video Codec
Codec ID : avc1
Codec ID/Info : Advanced Video Coding
Duration : 2h 34mn
Bit rate mode : Variable
Bit rate : 1 494 Kbps
Width : 854 pixels
Height : 480 pixels
Display aspect ratio : 16:9
Frame rate mode : Constant
Frame rate : 29.970 fps
Color space : YUV
Chroma subsampling : 4:2:0
Bit depth : 8 bits
Scan type : Progressive
Bits/(Pixel*Frame) : 0.122
Stream size : 1.61 GiB (96%)

Audio
ID : 2
Format : AAC
Format/Info : Advanced Audio Codec
Format profile : LC
Codec ID : 40
Duration : 2h 34mn
Bit rate mode : Variable
Bit rate : 60.1 Kbps
Maximum bit rate : 64.9 Kbps
Channel(s) : 2 channels
Channel positions : Front: L R
Sampling rate : 48.0 KHz
Compression mode : Lossy
Stream size : 66.4 MiB (4%)

 

 

 

 

 

 

 
Complete name : ICW.2018.02.11.7th.Annual.Square.Go.720p.WEB.h264-iNDYHEEL.mp4
Format : MPEG-4
Format profile : Base Media
Codec ID : isom
File size : 2.86 GiB
Duration : 2h 34mn
Overall bit rate : 2 654 Kbps
Writing application : Lavf58.2.103

Video
ID : 1
Format : AVC
Format/Info : Advanced Video Codec
Codec ID : avc1
Codec ID/Info : Advanced Video Coding
Duration : 2h 34mn
Bit rate mode : Variable
Bit rate : 2 587 Kbps
Width : 1 280 pixels
Height : 720 pixels
Display aspect ratio : 16:9
Frame rate mode : Constant
Frame rate : 29.970 fps
Color space : YUV
Chroma subsampling : 4:2:0
Bit depth : 8 bits
Scan type : Progressive
Bits/(Pixel*Frame) : 0.094
Stream size : 2.79 GiB (97%)x

Audio
ID : 2
Format : AAC
Format/Info : Advanced Audio Codec
Format profile : LC
Codec ID : 40
Duration : 2h 34mn
Bit rate mode : Variable
Bit rate : 60.1 Kbps
Maximum bit rate : 64.9 Kbps
Channel(s) : 2 channels
Channel positions : Front: L R
Sampling rate : 48.0 KHz
Compression mode : Lossy
Stream size : 66.4 MiB (2%)

 

 

 

 

 

 

 

 

 

 

 

Watch ICW 2018 02 11 7th Annual Square Go WEB iNDYHEEL /720p

 

 

 

 

Watch online

 

 

Waiting finish converting video

 

 

Server 1

 

 

 

 

 

 

 

 

 

 

 

 

 

 

 

 

 

 

 

Server 2

 

 

 

 

 

 

 


 

 

 

 

 

 

Uploaded By Site DX-TV.com

 

 

 

open rar file to see this password

 

 

 

 

The password is : DX-TV.com

 

 

 

 

400p+720p

 

 

 

 

 

Uploaded.net + rapidgator.net

 

 

 

 

 

 

http://shrt10.com/oeiPa

 

 

 

http://shrt10.com/INhX5qZ

 

 

 

http://shrt10.com/PAE2P6z

 

 

 

http://shrt10.com/TzrDB3

 

 

 

 

 

 

 

 

 

Watch ICW 2018 02 11 7th Annual Square Go WEB iNDYHEEL /720p

Support HVIPS

Please Disable Ad-Block To View This site. just help us to continue this work