Watch ICW 2017 11 18 France 98 WEB /720p

Watch ICW 2017 11 18 France 98 WEB /720p

 

 

 

 

 

 

wwe

 

 

 

 

 

 

Complete name : ICW.2017.11.18.France.98.WEB.h264-iNDYHEEL.mp4
Format : MPEG-4
Format profile : Base Media
Codec ID : isom
File size : 1.88 GiB
Duration : 2h 52mn
Overall bit rate : 1 562 Kbps
Writing application : Lavf57.20.100

Video
ID : 1
Format : AVC
Duration : 2h 52mn
Bit rate mode : Variable
Bit rate : 1 495 Kbps
Width : 854 pixels
Height : 480 pixels
Display aspect ratio : 16:9
Frame rate mode : Constant
Frame rate : 29.970 fps
Color space : YUV
Chroma subsampling : 4:2:0
Bit depth : 8 bits
Scan type : Progressive
Bits/(Pixel*Frame) : 0.122
Stream size : 1.80 GiB (96%)

Audio
ID : 2
Format : AAC
Format profile : LC
Codec ID : 40
Duration : 2h 52mn
Bit rate mode : Constant
Bit rate : 60.2 Kbps
Channel(s) : 2 channels
Channel positions : Front: L R
Sampling rate : 48.0 KHz
Compression mode : Lossy
Stream size : 74.2 MiB (4%)

 

 

 

 

 

 
Complete name : ICW.2017.11.18.France.98.720p.WEB.h264-iNDYHEEL.mp4
Format : MPEG-4
Format profile : Base Media
Codec ID : isom
File size : 3.20 GiB
Duration : 2h 52mn
Overall bit rate : 2 656 Kbps
Writing application : Lavf57.20.100

Video
ID : 1
Format : AVC
Duration : 2h 52mn
Bit rate mode : Variable
Bit rate : 2 589 Kbps
Width : 1 280 pixels
Height : 720 pixels
Display aspect ratio : 16:9
Frame rate mode : Constant
Frame rate : 29.970 fps
Color space : YUV
Chroma subsampling : 4:2:0
Bit depth : 8 bits
Scan type : Progressive
Bits/(Pixel*Frame) : 0.094
Stream size : 3.12 GiB (97%)

Audio
ID : 2
Format : AAC
Format profile : LC
Codec ID : 40
Duration : 2h 52mn
Bit rate mode : Constant
Bit rate : 60.2 Kbps
Channel(s) : 2 channels
Channel positions : Front: L R
Sampling rate : 48.0 KHz
Compression mode : Lossy
Stream size : 74.2 MiB (2%)

 

 

 

 

 

 

 

 

 

Watch ICW 2017 11 18 France 98 WEB /720p

 

 

 

 

Watch online

 

 

Waiting finish converting video

 

 

Server 1

 

 

 

 

 

 

 

 

 

 

 

 

 

 

 

 

 

 

 

 

Server 2

 

 

 

 

 

 

 

 

 


 

 

 

 

 

 

 

Srver 3

 

 

 

 

 

 

 

 

 


 

 

 

 

 

 

 

 

 

Uploaded By Site DX-TV.com

 

 

 

open rar file to see this password

 

 

 

 

The password is : DX-TV.com

 

 

 

 

400p+720p

 

 

 

Uploaded.net

 

 

 

 

 

 

 

http://shrt10.com/64pT

 

 

 

 

http://shrt10.com/N2FUBCJf

 

 

 

 

 

 

 

 

rapidgator.net

 

 

 

 

 

 

 

 

http://shrt10.com/RE7R

 

 

 

 

http://shrt10.com/TmHaDEKh

 

 

 

 

 

 

Watch ICW 2017 11 18 France 98 WEB /720p

Support HVIPS

Please Disable Ad-Block To View This site. just help us to continue this work