Watch ICW 2017 09 29 Fight Club WEB /720p

Watch ICW 2017 09 29 Fight Club WEB /720p

 

 

 

 

 

 

wwe

 

 

 

 

 

 

Complete name : ICW.2017.09.29.Fight.Club.WEB.h264-HEEL.mp4
Format : MPEG-4
Format profile : Base Media
Codec ID : isom
File size : 1.29 GiB
Duration : 1h 57mn
Overall bit rate : 1 564 Kbps
Writing application : Lavf57.20.100

Video
ID : 1
Format : AVC
Format settings, ReFrames : 3 frames
Codec ID : avc1
Codec ID/Info : Advanced Video Coding
Duration : 1h 57mn
Bit rate mode : Variable
Bit rate : 1 494 Kbps
Width : 854 pixels
Height : 480 pixels
Display aspect ratio : 16:9
Frame rate mode : Constant
Frame rate : 29.970 fps
Color space : YUV
Chroma subsampling : 4:2:0
Bit depth : 8 bits
Scan type : Progressive
Bits/(Pixel*Frame) : 0.122
Stream size : 1.23 GiB (96%)
Writing library : Zencoder Video Encoding System
Color primaries : BT.709-5, BT.1361, IEC 61966-2-4, SMPTE RP177
Transfer characteristics : BT.709-5, BT.1361
Matrix coefficients : BT.709-5, BT.1361, IEC 61966-2-4 709, SMPTE RP177

Audio
ID : 2
Format : AAC
Format/Info : Advanced Audio Codec
Format profile : LC
Codec ID : 40
Duration : 1h 57mn
Bit rate mode : Constant
Bit rate : 63.4 Kbps
Channel(s) : 2 channels
Channel positions : Front: L R
Sampling rate : 48.0 KHz
Compression mode : Lossy
Stream size : 53.5 MiB (4%)

 

 

 

 

 

 

 

 

 

 

 

 

 

 

 

 

 

 

Watch ICW 2017 09 29 Fight Club WEB /720p

 

 

 

 

Watch online

 

 

Waiting finish converting video

 

 

Server 1

 

 

 

 

 

 

 

 

 

 

 

 

 

 

 

 

 

 

 

 

Server 2

 

 

 

 

 

 

 

 


 

 

 

 

 

 

 

 

Uploaded By Site DX-TV.com

 

 

 

open rar file to see this password

 

 

 

 

The password is : DX-TV.com

 

 

 

 

400p+720p

 

 

 

Uploaded.net

 

 

 

 

 

http://shrt10.com/ILvkgcb

 

 

 

 

http://shrt10.com/iomqC

 

 

 

 

rapidgator.net

 

 

 

http://shrt10.com/C0v8Dn

 

 

http://shrt10.com/yJ4JF

 

 

 

 

 

 

 

 

Watch ICW 2017 09 29 Fight Club WEB /720p

Support HVIPS

Please Disable Ad-Block To View This site. just help us to continue this work