Watch House of Hardcore 37 2018 01 26 720p WEBRip mp4

Watch House of Hardcore 37 2018 01 26 720p WEBRip mp4

 

 

 

 

 

wwe

 

 

 

 

 

Complete name : House.of.Hardcore.37.2018.01.26.720p.TwitchRip.mp4
Format : MPEG-4
Format profile : Base Media
Codec ID : isom
File size : 3.06 GiB
Duration : 2h 56mn
Overall bit rate : 2 474 Kbps
Writing application : Lavf57.78.100

Video
ID : 1
Format : AVC
Format/Info : Advanced Video Codec
Codec ID : avc1
Codec ID/Info : Advanced Video Coding
Duration : 2h 56mn
Bit rate mode : Constant
Bit rate : 2 306 Kbps
Width : 1 280 pixels
Height : 720 pixels
Display aspect ratio : 16:9
Frame rate mode : Variable
Frame rate : 29.942 fps
Original frame rate : 29.970 fps
Minimum frame rate : 14.925 fps
Maximum frame rate : 30.303 fps
Standard : NTSC
Color space : YUV
Chroma subsampling : 4:2:0
Bit depth : 8 bits
Scan type : Progressive
Bits/(Pixel*Frame) : 0.084
Stream size : 2.85 GiB (93%)

Audio
ID : 2
Format : AAC
Format/Info : Advanced Audio Codec
Format profile : LC
Codec ID : 40
Duration : 2h 56mn
Bit rate mode : Constant
Bit rate : 160 Kbps
Channel(s) : 2 channels
Channel positions : Front: L R
Sampling rate : 44.1 KHz
Compression mode : Lossy
Stream size : 203 MiB (6%)

 

 

 

 

 

 

 

 

 

Watch House of Hardcore 37 2018 01 26 720p WEBRip mp4

 

 

 

 

Watch online

 

 

Waiting finish converting video

 

 

Server 1

 

 

 

 

 

 

 

 

 

 

 

 

 

 

 

 

 

 

Server 2

 

 

 

 

 

 

 

 

 

 

 

 

 

 

 

Uploaded By Site DX-TV.com

 

 

 

open rar file to see this password

 

 

 

 

The password is : DX-TV.com

 

 

 

 

720p

 

 

 

 

 

rapidgator.net

 

 

 

 

 

 

http://shrt10.com/ywnDrp

 

 

 

 

http://shrt10.com/73HM

 

 

 

 

 

 

 

 

 

 

Watch House of Hardcore 37 2018 01 26 720p WEBRip mp4