Watch House Of Hardcore 36 2017 12 02 WEB /720p

Watch House Of Hardcore 36 2017 12 02 WEB /720p

 

 

 

 

 

 

wwe

 

 

 

 

 

Complete name : House.Of.Hardcore.36.2017.12.02.mp4
Format : MPEG-4
Format profile : Base Media
Codec ID : isom
File size : 3.67 GiB
Duration : 3h 32mn
Overall bit rate : 2 474 Kbps
Writing application : Lavf57.78.100

Video
ID : 1
Format : AVC
Duration : 3h 32mn
Bit rate mode : Constant
Bit rate : 2 306 Kbps
Width : 1 280 pixels
Height : 720 pixels
Display aspect ratio : 16:9
Frame rate mode : Variable
Frame rate : 29.970 fps
Minimum frame rate : 29.412 fps
Maximum frame rate : 30.303 fps
Standard : NTSC
Color space : YUV
Chroma subsampling : 4:2:0
Bit depth : 8 bits
Scan type : Progressive
Bits/(Pixel*Frame) : 0.083
Stream size : 3.42 GiB (93%)

Audio
ID : 2
Format : AAC
Format profile : LC
Codec ID : 40
Duration : 3h 32mn
Bit rate mode : Constant
Bit rate : 158 Kbps
Channel(s) : 2 channels
Channel positions : Front: L R
Sampling rate : 44.1 KHz
Compression mode : Lossy
Stream size : 240 MiB (6%)

 

 

 

 

 

 
Complete name : House.of.hardcore.36.2017.12.02-1.m4v
Format : MPEG-4
Codec ID : mp42
File size : 2.30 GiB
Duration : 3h 32mn
Overall bit rate : 1 549 Kbps

Video
ID : 1
Format : AVC
Duration : 3h 32mn
Bit rate mode : Variable
Bit rate : 1 400 Kbps
Width : 720 pixels
Height : 400 pixels
Display aspect ratio : 16:9
Frame rate mode : Constant
Frame rate : 29.970 fps
Color space : YUV
Chroma subsampling : 4:2:0
Bit depth : 8 bits
Scan type : Progressive
Bits/(Pixel*Frame) : 0.162
Stream size : 2.05 GiB (89%)

Audio
ID : 2
Format : AAC
Format profile : LC
Codec ID : 40
Duration : 3h 32mn
Bit rate mode : Variable
Bit rate : 158 Kbps
Channel(s) : 2 channels
Channel positions : Front: L R
Sampling rate : 44.1 KHz
Compression mode : Lossy
Stream size : 240 MiB (10%)
Title : Stereo

 

 

 

 

 

 

 

 

 

 

 

 

 

Watch House Of Hardcore 36 2017 12 02 WEB /720p

 

 

 

 

Watch online

 

 

Waiting finish converting video

 

 

Server 1

 

 

 

 

 

 

 

 

 

 

 

 

 

 

 

 

 

 

 

 

Server 2

 

 

 

 

 

 

 

 


 

 

 

 

 

 

 

 

Srver 3

 

 

 

 

 

 

 

 

 

 


 

 

 

 

 

 

 

 

Uploaded By Site DX-TV.com

 

 

 

open rar file to see this password

 

 

 

 

The password is : DX-TV.com

 

 

 

 

400p+720p

 

 

 

Uploaded.net

 

 

 

 

 

 

 

http://shrt10.com/T12TcyWh

 

 

 

http://shrt10.com/RfAR6jaH

 

 

 

 

 

 

 

rapidgator.net

 

 

 

 

 

 

 

 

http://shrt10.com/HmvihNS

 

 

 

http://shrt10.com/NsMKFTxe

 

 

 

 

 

 

 

Watch House Of Hardcore 36 2017 12 02 WEB /720p

Support HVIPS

Please Disable Ad-Block To View This site. just help us to continue this work