Watch House of hardcore 35 2017 11 18 WEB DL /1080p

Watch House of hardcore 35 2017 11 18 WEB DL /1080p

 

 

 

 

 

 

wwe

 

 

 

 

 

 

Complete name : House.of.hardcore.35.2017.11.18.WEB DL.mp4
Format : MPEG-4
Codec ID : mp42
File size : 1.68 GiB
Duration : 2h 24mn
Overall bit rate : 1 667 Kbps

Video
ID : 1
Format : AVC
Format/Info : Advanced Video Codec
Codec ID : avc1
Codec ID/Info : Advanced Video Coding
Duration : 2h 24mn
Bit rate mode : Variable
Bit rate : 1 500 Kbps
Width : 720 pixels
Height : 480 pixels
Display aspect ratio : 16:9
Original display aspect ratio : 16:9
Frame rate mode : Variable
Frame rate : 29.970 fps
Minimum frame rate : 0.375 fps
Maximum frame rate : 45.708 fps
Standard : NTSC
Color space : YUV
Chroma subsampling : 4:2:0
Bit depth : 8 bits
Scan type : Progressive
Bits/(Pixel*Frame) : 0.145
Stream size : 1.51 GiB (90%)

Audio
ID : 2 
Codec ID : 40
Duration : 2h 24mn
Bit rate mode : Variable
Bit rate : 160 Kbps
Channel(s) : 2 channels
Channel positions : Front: L R
Sampling rate : 48.0 KHz
Compression mode : Lossy
Stream size : 165 MiB (10%)
Title : Stereo

 

 

 

 

 

 
Complete name : House.of.Hardcore.35.2017.11.18.1080p.WEB.h264.mp4
Format : MPEG-4
Format profile : Base Media
Codec ID : isom
File size : 5.11 GiB
Duration : 2h 24mn
Overall bit rate : 5 068 Kbps
Writing application : Lavf56.40.101

Video
ID : 1
Format : AVC
Format/Info : Advanced Video Codec
Codec ID : avc1
Codec ID/Info : Advanced Video Coding
Duration : 2h 24mn
Bit rate mode : Variable
Bit rate : 4 930 Kbps
Width : 1 920 pixels
Height : 1 080 pixels
Display aspect ratio : 16:9
Frame rate mode : Variable
Frame rate : 29.970 fps
Minimum frame rate : 0.370 fps
Maximum frame rate : 30.303 fps
Color space : YUV
Chroma subsampling : 4:2:0
Bit depth : 8 bits
Scan type : Progressive
Bits/(Pixel*Frame) : 0.079
Stream size : 4.96 GiB (97%)

Audio
ID : 2 
Codec ID : 40
Duration : 2h 24mn
Bit rate mode : Variable
Bit rate : 128 Kbps
Maximum bit rate : 131 Kbps
Channel(s) : 2 channels
Channel positions : Front: L R
Sampling rate : 48.0 KHz
Compression mode : Lossy
Stream size : 132 MiB (3%)

 

 

 

 

 

 

 

 

 

 

Watch House of hardcore 35 2017 11 18 WEB DL /1080p

 

 

 

 

Watch online

 

 

Waiting finish converting video

 

 

Server 1

 

 

 

 

 

 

 

 

 

 

 

 

 

 

 

 

 

 

 

 

 

 

Srver 2

 

 

 

 

 

 

 

 


 

 

 

 

 

 

 

 

Server 3

 

 

 

 

 

 

 

 

 


 

 

 

 

 

 

 

Uploaded By Site DX-TV.com

 

 

 

open rar file to see this password

 

 

 

 

The password is : DX-TV.com

 

 

 

 

400p + 1080p

 

 

 

 

Uploaded.net

 

 

 

 

 

 

 

 

 

http://shrt10.com/3RJ3d8pu

 

 

 

 

 

http://shrt10.com/ChGy

 

 

 

 

 

http://shrt10.com/TPwrUkuq

 

 

 

 

 

 

 

 

 

rapidgator.net

 

 

 

 

 

 

 

 

http://shrt10.com/UFAy

 

 

 

 

 

http://shrt10.com/Zqhl7O

 

 

 

 

 

http://shrt10.com/GpT6

 

 

 

 

 

 

 

 

Watch House of hardcore 35 2017 11 18 WEB DL /1080p

Support HVIPS

Please Disable Ad-Block To View This site. just help us to continue this work