Watch House of Hardcore 2018 02 18 WEB DL

Watch House of Hardcore 2018 02 18 WEB DL

 

 

 

 

 

 

wwe

 

 

 

 

 

 

 

 
Complete name : House of Hardcore – Sydney Australia mp4
Format : MPEG-4
Format profile : Base Media
Codec ID : isom
File size : 1.83 GiB
Duration : 1h 56mn
Overall bit rate : 2 257 Kbps

Video
ID : 1
Format : AVC
Format/Info : Advanced Video Codec
Codec ID : avc1
Codec ID/Info : Advanced Video Coding
Duration : 1h 56mn
Bit rate mode : Variable
Bit rate : 2 085 Kbps
Width : 1 280 pixels
Height : 720 pixels
Display aspect ratio : 16:9
Frame rate mode : Variable
Frame rate : 30.000 fps
Minimum frame rate : 29.412 fps
Maximum frame rate : 31.250 fps
Color space : YUV
Chroma subsampling : 4:2:0
Bit depth : 8 bits
Scan type : Progressive
Bits/(Pixel*Frame) : 0.075
Stream size : 1.69 GiB (92%)

Audio
ID : 2
Format : AAC
Format/Info : Advanced Audio Codec
Format profile : LC
Codec ID : 40
Duration : 1h 56mn
Bit rate mode : Variable
Bit rate : 160 Kbps
Maximum bit rate : 163 Kbps
Channel(s) : 2 channels
Channel positions : Front: L R
Sampling rate : 44.1 KHz
Compression mode : Lossy
Stream size : 133 MiB (7%)

 

 

 

 

 

 

 

 

 

 

 

 

 

 

 

 

 

Watch House of Hardcore 2018 02 18 WEB DL

 

 

 

 

Watch online

 

 

Waiting finish converting video

 

 

Server 1

 

 

 

 

 

 

 

 

 

 

 

 

 

 

 

 

 

 

Server 2

 

 

 

 

 

 

 

 

 


 

 

 

 

 

 

 

 

 

Uploaded By Site DX-TV.com

 

 

 

open rar file to see this password

 

 

 

 

The password is : DX-TV.com

 

 

 

 

720p

 

 

 

 

 

Uploaded.net + rapidgator.net

 

 

 

 

 

 

 

http://shrt10.com/5qxdbU

 

 

 

 

 

http://shrt10.com/nqcda9

 

 

 

 

 

 

 

 

Watch House of Hardcore 2018 02 18 WEB DL