Watch Hitting The Highspots Juventud Guerrera 720p

Watch Hitting The Highspots Juventud Guerrera 720p

 

 

 

 

 

 

wwe

 

 

 

 

 

 

 

 

The JUICE is LOOSE on this edition of “Hitting The Highspots.” Juventud Guererra takes our intrepid host, Rob Naylor, on a roller coaster ride of emotions. You’ll laugh, you’ll cry, you’ll shake uncontrollably from all the Juicyness.

Naylor also puts his vast array of wrestling history on display as he grills the Juice with names and matches from his past and things do get JUICY!!!

Enjoy this special episode of “Hitting The Highspots” with the Juicyest of them all, Juventus Guererra, and if you’re not down with the Juice, F$#! YOU TWICE!
 

 

 

 

 

 
Complete name : Hitting The Highspots Juventud Guerrera 720p.mp4
Format : MPEG-4
Format profile : Base Media
Codec ID : isom
File size : 1.74 GiB
Duration : 1h 33mn
Overall bit rate : 2 666 Kbps
Writing application : Lavf56.40.101

Video
ID : 1
Format : AVC
Format/Info : Advanced Video Codec
Codec ID : avc1
Codec ID/Info : Advanced Video Coding
Duration : 1h 33mn
Bit rate mode : Variable
Bit rate : 2 591 Kbps
Width : 1 280 pixels
Height : 720 pixels
Display aspect ratio : 16:9
Frame rate mode : Constant
Frame rate : 29.970 fps
Color space : YUV
Chroma subsampling : 4:2:0
Bit depth : 8 bits
Scan type : Progressive
Bits/(Pixel*Frame) : 0.094
Stream size : 1.69 GiB (97%)

Audio
ID : 2
Format : AAC
Format/Info : Advanced Audio Codec
Format profile : LC
Codec ID : 40
Duration : 1h 33mn
Bit rate mode : Variable
Bit rate : 67.7 Kbps
Maximum bit rate : 82.9 Kbps
Channel(s) : 2 channels
Channel positions : Front: L R
Sampling rate : 48.0 KHz
Compression mode : Lossy
Stream size : 45.1 MiB (3%)

 

 

 

 

 

 

 

 

 

 

Watch Hitting The Highspots Juventud Guerrera 720p

 

 

 

 

Watch online

 

 

Waiting finish converting video

 

 

Server 1

 

 

 

 

 

 

 

 

 

 

 

 

 

 

 

 

 

 

 

 

Server 2

 

 

 

 

 

 

 

 

 


 

 

 

 

 

 

 

Srver 3

 

 

 

 

 

 

 

 

 


 

 

 

 

 

 

 

 

 

Uploaded By Site DX-TV.com

 

 

 

open rar file to see this password

 

 

 

 

The password is : DX-TV.com

 

 

 

 

720p

 

 

 

 

rapidgator.net

 

 

 

 

 

 

 

http://shrt10.com/Uyqsw9Q

 

 

 

 

 

 

 

 

Watch Hitting The Highspots Juventud Guerrera 720p

Support HVIPS

Please Disable Ad-Block To View This site. just help us to continue this work