Watch H20 Hardcore Kingdom 2 2018 02 09

Watch H20 Hardcore Kingdom 2 2018 02 09

 

 

s

 

 

 

wwe

 

 

 

 

 

 

Complete name : H20 Hardcore Kingdom 2.mp4
Format : MPEG-4
Format profile : Base Media / Version 2
Codec ID : mp42
File size : 2.08 GiB
Duration : 2h 19mn
Overall bit rate : 2 133 Kbps
Encoded date : UTC 2018-02-20 01:38:37
Tagged date : UTC 2018-02-20 01:40:08

Video
ID : 1
Format : AVC
Format/Info : Advanced Video Codec
Codec ID : avc1
Codec ID/Info : Advanced Video Coding
Duration : 2h 19mn
Bit rate mode : Variable
Bit rate : 2 001 Kbps
Width : 854 pixels
Height : 480 pixels
Display aspect ratio : 16:9
Frame rate mode : Constant
Frame rate : 29.970 fps
Color space : YUV
Chroma subsampling : 4:2:0
Bit depth : 8 bits
Scan type : Progressive
Bits/(Pixel*Frame) : 0.163
Stream size : 1.96 GiB (94%)
Language : English
Encoded date : UTC 2018-02-20 01:38:31
Tagged date : UTC 2018-02-20 01:40:08
Audio
ID : 2
Format : AAC
Format/Info : Advanced Audio Codec
Format profile : LC
Codec ID : 40
Duration : 2h 19mn
Bit rate mode : Constant
Bit rate : 128 Kbps
Channel(s) : 2 channels
Channel positions : Front: L R
Sampling rate : 48.0 KHz
Compression mode : Lossy
Stream size : 128 MiB (6%)
Language : English
Encoded date : UTC 2018-02-20 01:38:31
Tagged date : UTC 2018-02-20 01:40:08

 

 

 

 

 

 

 

 

Watch H20 Hardcore Kingdom 2 2018 02 09

 

 

 

 

Watch online

 

 

Waiting finish converting video

 

 

Server 1

 

 

 

 

 

 

 

 

 

 

 

 

 

 

 

 

 

 

 

Server 2

 

 

 

 

 

 

 

 

 


 

 

 

 

Uploaded By Site DX-TV.com

 

 

 

open rar file to see this password

 

 

 

 

The password is : DX-TV.com

 

 

 

 

 

 

 

 

Uploaded.net + rapidgator.net

 

 

 

 

 

 

 

http://shrt10.com/5WZDKgw

 

 

 

 

http://shrt10.com/Z6vv

 

 

 

 

 

 

 

 

 

Watch H20 Hardcore Kingdom 2 2018 02 09