Watch Glory 56 Super Fight Series WEB \720p

Watch Glory 56 Super Fight Series WEB \720p

Watch Glory 56 Super Fight Series WEB \720p

 

 

 

 


 

 

 

dx-tv.com

 

 

 

 

 

Complete name : Glory.56.Super.Fight.Series.WEB-DL.mp4
Format : MPEG-4
Format profile : Base Media
File size : 1.38 GiB
Duration : 2 h 8 min
Overall bit rate : 1 529 kb/s
Writing application : Lavf58.17.101

Video
ID : 1
Format : AVC
Format/Info : Advanced Video Codec
Codec ID : avc1
Codec ID/Info : Advanced Video Coding
Duration : 2 h 8 min
Bit rate : 1 442 kb/s
Width : 852 pixels
Height : 480 pixels
Display aspect ratio : 16:9
Frame rate mode : Constant
Frame rate : 29.970 (30000/1001) FPS
Original frame rate : 29.970 (29970/1000) FPS
Color space : YUV
Chroma subsampling : 4:2:0
Bit depth : 8 bits
Scan type : Progressive
Bits/(Pixel*Frame) : 0.118
Stream size : 1.30 GiB (94%)

Audio
ID : 2
Format : AAC
Format/Info : Advanced Audio Codec
Format profile : LC
Codec ID : mp4a-40-2
Duration : 2 h 8 min
Bit rate mode : Constant
Bit rate : 77.6 kb/s
Channel(s) : 2 channels
Channel positions : Front: L R
Sampling rate : 44.1 kHz
Frame rate : 43.066 FPS (1024 SPF)
Compression mode : Lossy
Stream size : 71.5 MiB (5%)
Default : Yes
Alternate group : 1

 

 

 

 

 
[EVENT]: Glory.56.Super.Fight.Series.720p.WEB-DL.mp4
[SIZE]: 3.96 GB
[SOURCE]: Fight Pass
[CONTAINER]: mp4
[RESOLUTION]: 1280 x 720 @ 29.970 FPS
[VIDEO]: H264 @ 4265 Kbps
[AUDIO]: AAC @ 126 kbps
[Length]: 02:08:54
[Language]: English

 

 

 

 

 

 

Watch Glory 56 Super Fight Series WEB \720p

 

 

 

 

Watch online

 

 

Waiting finish converting video

 

 

Server 1

 

 

 

 

 

 

 

 

 

 

 

 

 

 

 

 

 

 

 

Server 2

 

 

 

 

 

 

 

 

 

 

 

 

 

 

 

Uploaded By Site DX-TV.com

 

 

 

open rar file to see this password

 

 

 

 

The password : DX-TV.com

 

 

 

 

Uploaded.net + rapidgator.net

 

 

 

 

 

 

 
http://shrt10.com/yp5JZPk
 

 

http://shrt10.com/5H7EPalA
 

 

 

http://shrt10.com/0Fv3DiS

 

 

 
http://shrt10.com/kJUoZ9
 

 

 

 

 

Watch Glory 56 Super Fight Series WEB \720p

This site uses Akismet to reduce spam. Learn how your comment data is processed.

Support HVIPS

Please Disable Ad-Block To View This site. just help us to continue this work