Watch GLORY 56 Denver 720p WEB DL ORG

Watch GLORY 56 Denver 720p WEB DL ORG

 

 

 

 


 

 

dx-tv.com

 

 

 

 

 

 

Complete name : GLORY.56.Denver.720p.WEB.DL.x264-ORG.mp4
Format : MPEG-4
Format profile : Base Media
File size : 1.28 GiB
Duration : 2 h 15 min
Overall bit rate mode : Constant
Overall bit rate : 1 349 kb/s
Writing application : Lavf58.12.100

Video
ID : 1
Format : AVC
Format/Info : Advanced Video Codec
Codec ID/Info : Advanced Video Coding
Duration : 2 h 15 min
Bit rate mode : Constant
Bit rate : 1 250 kb/s
Width : 1 280 pixels
Height : 720 pixels
Display aspect ratio : 16:9
Frame rate mode : Variable
Frame rate : 25.000 FPS
Minimum frame rate : 19.608 FPS
Maximum frame rate : 25.000 FPS
Color space : YUV
Chroma subsampling : 4:2:0
Bit depth : 8 bits
Scan type : Progressive
Bits/(Pixel*Frame) : 0.054
Stream size : 1.19 GiB (93%)

Audio
ID : 2
Format : AAC
Format/Info : Advanced Audio Codec
Format profile : LC
Codec ID : mp4a-40-2
Duration : 2 h 15 min
Bit rate mode : Constant
Bit rate : 93.4 kb/s
Channel(s) : 2 channels
Channel positions : Front: L R
Sampling rate : 48.0 kHz
Frame rate : 46.875 FPS (1024 SPF)
Compression mode : Lossy
Stream size : 90.8 MiB (7%)
Default : Yes
Alternate group : 1

 

 

 

 

 

Watch GLORY 56 Denver 720p WEB DL ORG

 

 

 

 

Watch online

 

 

Waiting finish converting video

 

 

Server 1

 

 

 

 

 

 

 

 

 

 

 

 

 

 

 

 

 

 

 

 

Server 2

 

 

 

 

 

 

 

 

 

 

 

 

 

Uploaded By Site DX-TV.com

 

 

 

open rar file to see this password

 

 

 

 

The password : DX-TV.com

 

 

 

 

Uploaded.net + rapidgator.net

 

 

 

 

 

 

 

http://shrt10.com/CzGTW

 
http://shrt10.com/3LsPXIi
 

 

 

 

 

 

 

Watch GLORY 56 Denver 720p WEB DL ORG