Watch Glory 48 HDTV DX-TV /720p

Watch Glory 48 HDTV DX-TV /720p

 

 

 

 

 

 

wwe

 

 

 

 

 

Complete name : Glory.48.720p.HDTV.x264.DX-TV.mp4
Format : MPEG-4
Format profile : Base Media / Version 2
Codec ID : mp42
File size : 2.75 GiB
Duration : 2h 4mn
Overall bit rate : 3 166 Kbps

Video
ID : 1
Format : AVC
Format/Info : Advanced Video Codec
Codec ID : avc1
Codec ID/Info : Advanced Video Coding
Duration : 2h 4mn
Bit rate mode : Variable
Bit rate : 3 000 Kbps
Width : 1 280 pixels
Height : 720 pixels
Display aspect ratio : 16:9
Frame rate mode : Variable
Frame rate : 25.000 fps
Minimum frame rate : 1.712 fps
Maximum frame rate : 25.000 fps
Color space : YUV
Chroma subsampling : 4:2:0
Bit depth : 8 bits
Scan type : Progressive
Bits/(Pixel*Frame) : 0.130
Stream size : 2.61 GiB (95%)

Audio
ID : 2
Format/Info : Advanced Audio Codec
Format profile : LC
Codec ID : 40
Duration : 2h 4mn
Bit rate mode : Variable
Bit rate : 160 Kbps
Channel(s) : 2 channels
Channel positions : Front: L R
Sampling rate : 48.0 KHz
Compression mode : Lossy
Stream size : 143 MiB (5%)
Title : Stereo
Language : English

 

 

 

 

 
Complete name : Glory.48.HDTV.x264.DX-TV.mp4
Format : MPEG-4
Format profile : Base Media / Version 2
Codec ID : mp42
File size : 1.36 GiB
Duration : 2h 4mn
Overall bit rate : 1 567 Kbps

Video
ID : 1
Codec ID : avc1
Duration : 2h 4mn
Bit rate mode : Variable
Bit rate : 1 400 Kbps
Width : 720 pixels
Height : 480 pixels
Display aspect ratio : 16:9
Original display aspect ratio : 16:9
Frame rate mode : Variable
Frame rate : 25.000 fps
Minimum frame rate : 1.652 fps
Maximum frame rate : 25.000 fps
Standard : NTSC
Color space : YUV
Chroma subsampling : 4:2:0
Bit depth : 8 bits
Scan type : Progressive
Bits/(Pixel*Frame) : 0.162
Stream size : 1.22 GiB (89%)

Audio
ID : 2
Codec ID : 40
Duration : 2h 4mn
Bit rate mode : Variable
Bit rate : 161 Kbps
Channel(s) : 2 channels
Channel positions : Front: L R
Sampling rate : 48.0 KHz
Compression mode : Lossy
Stream size : 143 MiB (10%)
Title : Stereo
Language : English

 

 

 

 

 

 

 

 

 

 

 

 

Watch Glory 48 HDTV DX-TV /720p

 

 

 

 

Watch online

 

 

Waiting finish converting video

 

 

Server 1

 

 

 

 

 

 

 

 

 

 

 

 

 

 

 

 

 

 

 

 

 

 

Srver 2

 

 

 

 

 

 

 

 

 


 

 

 

 

 

 

 

 

Server 3

 

 

 

 

 

 

 

 

 


 

 

 

 

 

 

 

 

Uploaded By Site DX-TV.com

 

 

 

open rar file to see this password

 

 

 

 

The password is : DX-TV.com

 

 

 

 

400p+720p

 

 

 

 

Uploaded.net

 

 

 

 

 

 

 

 

http://shrt10.com/IgDkLOm

 

 

 

http://shrt10.com/4hF0VDfc

 

 

 

 

 

 

 

 

 

 

rapidgator.net

 

 

 

 

 

 

 

http://shrt10.com/P8Ic6s

 

 

 

http://shrt10.com/huG1t

 

 

 

 

 

 

 

 

 

Watch Glory 48 HDTV DX-TV /720p

Support HVIPS

Please Disable Ad-Block To View This site. just help us to continue this work