Watch GFW One Night Only Collision In Oklahoma 2018 WEB DX-TV /720p

Watch GFW One Night Only Collision In Oklahoma 2018 WEB DX-TV /720p

 

 

 

 

 

 

wwe

 

 

 

 

 

 

 

 

 

 

 

 

 

 

Complete name : GFW.One.Night.Only.Collision.In.Oklahoma.2018.WEB.x264.DX-TV.mp4
Format : MPEG-4
Format profile : Base Media / Version 2
Codec ID : mp42
File size : 1.75 GiB
Duration : 2h 40mn
Overall bit rate : 1 562 Kbps

Video
ID : 1
Format/Info : Advanced Video Codec
Codec ID : avc1
Codec ID/Info : Advanced Video Coding
Duration : 2h 40mn
Bit rate mode : Variable
Bit rate : 1 400 Kbps
Width : 720 pixels
Height : 480 pixels
Display aspect ratio : 16:9
Original display aspect ratio : 16:9
Frame rate mode : Constant
Frame rate : 29.970 fps
Standard : NTSC
Color space : YUV
Chroma subsampling : 4:2:0
Bit depth : 8 bits
Scan type : Progressive
Bits/(Pixel*Frame) : 0.135
Stream size : 1.56 GiB (89%)

Audio
ID : 2
Format/Info : Advanced Audio Codec
Codec ID : 40
Duration : 2h 40mn
Bit rate mode : Variable
Bit rate : 160 Kbps
Channel(s) : 2 channels
Channel positions : Front: L R
Sampling rate : 44.1 KHz
Compression mode : Lossy
Stream size : 184 MiB (10%)
Title : Stereo

 

 

 

 

 

 

 

 

 
Complete name : iMPACT.Wrestling.One.Night.Only.Collision.In.Oklahoma.2018.720p.WEB.h264-HEEL.mp4
Format : MPEG-4
Format profile : Base Media
Codec ID : isom
File size : 5.11 GiB
Duration : 2h 40mn
Overall bit rate : 4 570 Kbps
Writing application : Lavf58.2.103

Video
ID : 1
Format : AVC
Format/Info : Advanced Video Codec
Codec ID : avc1
Codec ID/Info : Advanced Video Coding
Duration : 2h 40mn
Bit rate mode : Variable
Bit rate : 4 500 Kbps
Maximum bit rate : 4 500 Kbps
Width : 1 280 pixels
Height : 720 pixels
Display aspect ratio : 16:9
Frame rate mode : Variable
Frame rate : 29.970 fps
Minimum frame rate : 26.995 fps
Maximum frame rate : 29.970 fps
Color space : YUV
Chroma subsampling : 4:2:0
Bit depth : 8 bits
Scan type : Progressive
Bits/(Pixel*Frame) : 0.163
Stream size : 5.03 GiB (98%)

Audio
ID : 2
Format/Info : Advanced Audio Codec
Codec ID : 40
Duration : 2h 40mn
Bit rate mode : Variable
Bit rate : 62.8 Kbps
Maximum bit rate : 64.1 Kbps
Channel(s) : 2 channels
Channel positions : Front: L R
Sampling rate : 44.1 KHz / 22.05 KHz
Compression mode : Lossy

 

 

 

 

 

 

 

 

 

 

 

 

 

 

Watch GFW One Night Only Collision In Oklahoma 2018 WEB DX-TV /720p

 

 

 

 

Watch online

 

 

Waiting finish converting video

 

 

Server 1

 

 

 

 

 

 

 

 

 

 

 

 

 

 

 

 

 

 

 

 

 

 

 

 

Srver 2

 

 

 

 

 

 

 

 

 

 


 

 

 

 

 

 

 

Uploaded By Site DX-TV.com

 

 

 

open rar file to see this password

 

 

 

 

The password is : DX-TV.com

 

 

 

 

400p+720p

 

 

 

 

Uploaded.net + rapidgator.net

 

 

 

 

 

 

 

 

 

 

 

 

 

http://shrt10.com/b5wUup

 

http://shrt10.com/NKR8

 

 

http://shrt10.com/PISRoTft

 

 

http://shrt10.com/dbtA

 

 

http://shrt10.com/P0ZMPDy

 

 

http://shrt10.com/RltG

 

 

 

 

 

 

 

 

 

 

 

 

 

 

 

 

 

 

 

 

 

Watch GFW One Night Only Collision In Oklahoma 2018 WEB DX-TV /720p

Support HVIPS

Please Disable Ad-Block To View This site. just help us to continue this work