Watch GFW iMPACT Wrestling 2018 01 11 HDTV Ebi /720p

Watch GFW iMPACT Wrestling 2018 01 11 HDTV Ebi /720p

 

 

 

 

 

 

wwe

 

 

 

 

 

 

 

Complete name : GFW.iMPACT.Wrestling.2018.01.11.HDTV.x264-Ebi.mp4
Format : MPEG-4
Format profile : Base Media / Version 2
Codec ID : mp42
File size : 961 MiB
Duration : 1h 31mn
Overall bit rate : 1 465 Kbps

Video
ID : 1
Format : AVC
Format/Info : Advanced Video Codec
Codec ID : avc1
Codec ID/Info : Advanced Video Coding
Duration : 1h 31mn
Bit rate mode : Variable
Bit rate : 1 300 Kbps
Width : 712 pixels
Height : 400 pixels
Display aspect ratio : 16:9
Frame rate mode : Constant
Frame rate : 29.970 fps
Color space : YUV
Chroma subsampling : 4:2:0
Bit depth : 8 bits
Scan type : Progressive
Bits/(Pixel*Frame) : 0.152
Stream size : 851 MiB (89%)

Audio
ID : 2
Format : AAC
Format/Info : Advanced Audio Codec
Format profile : LC
Codec ID : 40
Duration : 1h 31mn
Bit rate mode : Variable
Bit rate : 160 Kbps
Channel(s) : 2 channels
Channel positions : Front: L R
Sampling rate : 48.0 KHz
Compression mode : Lossy
Stream size : 105 MiB (11%)
Title : Stereo

 

 

 

 

 

GFW.iMPACT.Wrestling.2018.01.11.720p.HDTV.x264-Ebi
Release Info:
Show Name: GFW iMPACT Wrestling
Genre: Wrestling
Release Date: 2018-01-11(UK)
Air Date: 2018-01-11(US)
Source : HDTV
Container: MP4
Video: x264, 1465Kbps, 29,970fps, 1280×720, 16:9
Audio: AAC, 192bps, 48KHz, 2ch
Size: 961 MB
Runtime: 1h 31mn

 

 

 

 

 

 

 

 

 

 

 

 

 

 

 

 

Watch GFW iMPACT Wrestling 2018 01 11 HDTV Ebi /720p

 

 

 

 

Watch online

 

 

Waiting finish converting video

 

 

Server 1

 

 

 

 

 

 

 

 

 

 

 

 

 

 

 

 

 

 

 

 

 

 

 

 

 

 

Srver 2

 

 

 

 

 

 

 

 

 

 

 

 

 


 

 

 

 

 

 

 

 

 

 

 

 

Uploaded By Site DX-TV.com

 

 

 

open rar file to see this password

 

 

 

 

The password is : DX-TV.com

 

 

 

 

400p+720p

 

 

 

 

Uploaded.net + rapidgator.net

 

 

 

 

 

 

 

 

http://shrt10.com/4iLaQUwm

 

 

http://shrt10.com/uM6WkZJW

 

 

 

 

 

 

http://shrt10.com/3mOiwIK

 

 

 

http://shrt10.com/3Jdnz

 

 

 

 

 

 

 

 

 

 

 

 

Watch GFW iMPACT Wrestling 2018 01 11 HDTV Ebi /720p