Watch GFW iMPACT Wrestling 2017 12 28 Best Of 2017 Part 2 HDTV NWCHD /720p

Watch GFW iMPACT Wrestling 2017 12 28 Best Of 2017 Part 2 HDTV NWCHD /720p

 

 

 

 

 

 

wwe

 

 

 

 

 

 

 

File Name – iMPACT.Wrestling.2017.12.28.Best.Of.iMPACT.Wrestling.2017.Part2.HDTV.x264-NWCHD
Released – 12.28.2017
Aired – 12.28.2017
Size – 959 MB
Source – POP HD
Container – MP4
Resolution – 704 x 400 (16:9) @ 29.970 FPS
Video – x264 @ 1400 kbps
Audio – AAC @ 192 kbps
Length – 01:23:54 min

 

 

 

 

 
Complete name : iMPACT.Wrestling.2017.12.28.Best.Of.iMPACT.Wrestling.2017.Part2.720p.HDTV.x264-NWCHD.mp4
Format : MPEG-4
Format profile : Base Media
Codec ID : isom
File size : 2.75 GiB
Duration : 1h 23mn
Overall bit rate : 4 697 Kbps
Writing application : Lavf56.40.101

Video
ID : 1
Format : AVC
Format/Info : Advanced Video Codec
Codec ID : avc1
Codec ID/Info : Advanced Video Coding
Duration : 1h 23mn
Bit rate mode : Variable
Bit rate : 4 500 Kbps
Width : 1 280 pixels
Height : 720 pixels
Display aspect ratio : 16:9
Frame rate mode : Variable
Frame rate : 29.970 fps
Minimum frame rate : 29.126 fps
Maximum frame rate : 29.970 fps
Color space : YUV
Chroma subsampling : 4:2:0
Bit depth : 8 bits
Scan type : Progressive
Bits/(Pixel*Frame) : 0.163
Stream size : 2.63 GiB (96%)

Audio
ID : 2
Format : AAC
Format/Info : Advanced Audio Codec
Format profile : LC
Codec ID : 40
Duration : 1h 23mn
Bit rate mode : Variable
Bit rate : 192 Kbps
Maximum bit rate : 200 Kbps
Channel(s) : 2 channels
Channel positions : Front: L R
Sampling rate : 48.0 KHz
Compression mode : Lossy
Stream size : 115 MiB (4%)

 

 

 

 

 

 

 

 

 

 

 

 

Watch GFW iMPACT Wrestling 2017 12 28 Best Of 2017 Part 2 HDTV NWCHD /720p

 

 

 

 

Watch online

 

 

Waiting finish converting video

 

 

Server 1

 

 

 

 

 

 

 

 

 

 

 

 

 

 

 

 

 

 

 

 

Server 2

 

 

 

 

 

 

 

 

 

 

 

 


 

 

 

 

 

 

 

 

 

Uploaded By Site DX-TV.com

 

 

 

open rar file to see this password

 

 

 

 

The password is : DX-TV.com

 

 

 

 

400p+720p

 

 

 

 

 

Uploaded.net + rapidgator.net

 

 

 

 

 

 

 

 

 

 

 http://shrt10.com/JbY1gkI

 

 

 

http://shrt10.com/yyaKCgjB

 

 

 

http://shrt10.com/ym5G

 

 

 

http://shrt10.com/bmWum0

 

 

 

 

 

 

 

 

 

 

 

Watch GFW iMPACT Wrestling 2017 12 28 Best Of 2017 Part 2 HDTV NWCHD /720p

Support HVIPS

Please Disable Ad-Block To View This site. just help us to continue this work