Watch GFW impact Wrestling 2017 12 14 WE DL mp4

Watch GFW impact Wrestling 2017 12 14 HDTV x264 mp4

 

 

 

 

 

 

wwe

 

 

 

 

 

 

 
Complete name : TNA impact 2017-12-14 mp4
Format : MPEG-4
Codec ID : M4V
File size : 1.56 GiB
Duration : 1h 38mn
Overall bit rate : 2 279 Kbps
Writing application : eRightSoft(C)

Video
ID : 1
Format : AVC
Format/Info : Advanced Video Codec
Codec ID : avc1
Codec ID/Info : Advanced Video Coding
Duration : 1h 38mn
Bit rate mode : Variable
Bit rate : 2 141 Kbps
Width : 1 280 pixels
Height : 720 pixels
Display aspect ratio : 16:9
Frame rate mode : Variable
Frame rate : 29.970 fps
Minimum frame rate : 0.883 fps
Maximum frame rate : 34.870 fps
Color space : YUV
Chroma subsampling : 4:2:0
Bit depth : 8 bits
Scan type : Progressive
Bits/(Pixel*Frame) : 0.078
Stream size : 1.47 GiB (94%)

Audio
ID : 2
Format : AAC
Format/Info : Advanced Audio Codec
Format profile : LC
Codec ID : 40
Duration : 1h 38mn
Bit rate mode : Constant
Bit rate : 128 Kbps
Channel(s) : 2 channels
Channel positions : Front: L R
Sampling rate : 44.1 KHz
Compression mode : Lossy
Stream size : 90.2 MiB (6%)

 

 

 

 

 

 

 

 

 

 

 

 

 

 

 

 

 

 

Watch GFW impact Wrestling 2017 12 14 HDTV x264 mp4

 

 

 

 

Watch online

 

 

Waiting finish converting video

 

 

Server 1

 

 

 

 

 

 

 

 

 

 

 

 

 

 

 

 

 

 

 

 

Server 2

 

 

 

 

 

 

 

 


 

 

 

 

 

 

 

 

 

 

 

 

 

Uploaded By Site DX-TV.com

 

 

 

open rar file to see this password

 

 

 

 

The password is : DX-TV.com

 

 

 

 

720p

 

 

 

 

 

rapidgator.net

 

 

 

 

 

 

 

http://shrt10.com/MTxa

 

 

 

 

 

 

 

Watch GFW impact Wrestling 2017 12 14 HDTV x264 mp4

Support HVIPS

Please Disable Ad-Block To View This site. just help us to continue this work