Watch GFW Amped Anthology Part 3 2017 10 13 PPV WEB /720p

Watch GFW Amped Anthology Part 3 2017 10 13 PPV WEB /720p

 

 

 

 

 

 

wwe

 

 

 

 

Complete name : GFW.Amped.Anthology.Part.3.2017.PPV.WEB.mp4
Format : MPEG-4
Format profile : Base Media / Version 2
Codec ID : mp42
File size : 1.89 GiB
Duration : 2h 48mn
Overall bit rate : 1 602 Kbps

Video
ID : 1
Format : AVC
Codec ID : avc1
Duration : 2h 48mn
Bit rate mode : Variable
Bit rate : 1 500 Kbps
Width : 700 pixels
Height : 400 pixels
Display aspect ratio : 16:9
Frame rate mode : Variable
Frame rate : 25.000 fps
Minimum frame rate : 12.500 fps
Maximum frame rate : 25.000 fps
Color space : YUV
Chroma subsampling : 4:2:0
Bit depth : 8 bits
Scan type : Progressive

Audio
ID : 2
Format : AAC
Format profile : LC
Codec ID : 40
Duration : 2h 48mn
Bit rate mode : Variable
Bit rate : 98.4 Kbps
Maximum bit rate : 187 Kbps
Channel(s) : 2 channels
Channel positions : Front: L R
Sampling rate : 22.05 KHz
Compression mode : Lossy
Stream size : 119 MiB (6%)
Language : English

 

 

 

 

 

 

Complete name : GFW.Amped.Anthology.Part.3.2017.PPV.720p.WEB.H264-Cox.mp4
Format : MPEG-4
Codec ID : mp42
File size : 4.80 GiB
Duration : 2h 48mn
Overall bit rate : 4 079 Kbps

Video
ID : 1
Format : AVC
Codec ID : avc1
Duration : 2h 48mn
Bit rate mode : Variable
Bit rate : 3 998 Kbps
Width : 1 280 pixels
Height : 720 pixels
Display aspect ratio : 16:9
Frame rate mode : Constant
Frame rate : 25.000 fps
Color space : YUV
Chroma subsampling : 4:2:0
Bit depth : 8 bits
Scan type : Progressive
Bits/(Pixel*Frame) : 0.174
Stream size : 4.71 GiB (98%)
Language : English

Audio
ID : 2
Format : AAC
Format profile : LC
Codec ID : 40
Duration : 2h 48mn
Bit rate mode : Constant
Bit rate : 75.3 Kbps
Channel(s) : 2 channels
Channel positions : Front: L R
Sampling rate : 22.05 KHz
Compression mode : Lossy
Stream size : 90.8 MiB (2%)
Language : English

 

 

 

 

 

 

 

 

 

 

 

Watch GFW Amped Anthology Part 3 2017 10 13 PPV WEB /720p

 

 

 

 

Watch online

 

 

Waiting finish converting video

 

 

Server 1

 

 

 

 

 

 

 

 

 

 

 

 

 

 

 

 

 

 

 

 

 

 

Server 2

 

 

 

 

 

 

 

 

 

 

 


 

 

 

 

 

 

 

 

Uploaded By Site DX-TV.com

 

 

 

open rar file to see this password

 

 

 

 

The password is : DX-TV.com

 

 

 

 

400p+720p

 

 

 

 

Uploaded.net

 

 

 

 

 

 

 

 

http://shrt10.com/D9PFC

 

 

 

 

 

http://shrt10.com/c3ki

 

 

 

 

 

 

http://shrt10.com/jkv5BO

 

 

 

 

 

 

rapidgator.net

 

 

 

 

 

 

 

 

http://shrt10.com/yp6Qx

 

 

 

 

 

 

http://shrt10.com/885ZbY

 

 

 

 

http://shrt10.com/kT1y8i

 

 

 

 

 

 

 

 

 

Watch GFW Amped Anthology Part 3 2017 10 13 PPV WEB /720p

Support HVIPS

Please Disable Ad-Block To View This site. just help us to continue this work