Watch GFW 2017 Amped Anthology Part 4 PPV HDTV VERUM /720p

Watch GFW 2017 Amped Anthology Part 4 PPV HDTV VERUM /720p

 

 

 

 

 

 

wwe

 

 

 

 

 

Complete name : gfw.2017.amped.anthology.part.4.ppv.hdtv.x264-verum.mkv
Format : Matroska
File size : 1.40 GiB
Duration : 2h 47mn
Overall bit rate : 1 201 Kbps
Encoded date : UTC 2010-02-22 21:41:29
Video
ID : 1
Format : AVC
Format/Info : Advanced Video Codec
Codec ID : V_MPEG4/ISO/AVC
Duration : 2h 47mn
Width : 720 pixels
Height : 404 pixels
Display aspect ratio : 16:9
Frame rate : 50.000 fps
Color space : YUV
Chroma subsampling : 4:2:0
Bit depth : 8 bits
Scan type : Progressive

Audio
ID : 2
Format : AAC
Format profile : LC
Codec ID : A_AAC
Duration : 2h 47mn
Channel(s) : 2 channels
Channel positions : Front: L R
Sampling rate : 48.0 KHz
Compression mode : Lossy
Language : English

 

 

 

 

 

 
Complete name : gfw.2017.amped.anthology.part.4.ppv.720p.hdtv.x264-verum.mkv
Format : Matroska
File size : 3.21 GiB
Duration : 2h 47mn
Overall bit rate : 2 744 Kbps
Encoded date : UTC 2010-02-22 21:41:29

Video
ID : 1
Format : AVC
Format/Info : Advanced Video Codec
Codec ID : V_MPEG4/ISO/AVC
Duration : 2h 47mn
Bit rate : 2 497 Kbps
Width : 1 280 pixels
Height : 720 pixels
Display aspect ratio : 16:9
Frame rate : 50.000 fps
Color space : YUV
Chroma subsampling : 4:2:0
Bit depth : 8 bits
Scan type : Progressive
Bits/(Pixel*Frame) : 0.054
Stream size : 2.92 GiB (91%)

Audio
ID : 2
Format version : Version 1
Format profile : Layer 2
Codec ID : A_MPEG/L2
Codec ID/Hint : MP2
Duration : 2h 47mn
Bit rate mode : Constant
Bit rate : 192 Kbps
Channel(s) : 2 channels
Sampling rate : 48.0 KHz
Compression mode : Lossy
Stream size : 230 MiB (7%)
Language : English

 

 

 

 

 

 

 

 

 

 

 

 

 

Watch GFW 2017 Amped Anthology Part 4 PPV HDTV VERUM /720p

 

 

 

 

Watch online

 

 

Waiting finish converting video

 

 

Server 1

 

 

 

 

 

 

 

 

 

 

 

 

 

 

 

 

 

 

 

 

Server 2

 

 

 

 

 

 

 

 

 


 

 

 

 

 

 

 

Srver 3

 

 

 

 

 

 

 

 

 


 

 

 

 

 

 

 

 

 

Uploaded By Site DX-TV.com

 

 

 

open rar file to see this password

 

 

 

 

The password is : DX-TV.com

 

 

 

 

400p+720p

 

 

 

 

rapidgator.net

 

 

 

 

 

 

 

 

http://shrt10.com/iSGG

 

 

 

 

 

http://shrt10.com/5zEdIn

 

 

 

 

 

 

Watch GFW 2017 Amped Anthology Part 4 PPV HDTV VERUM /720p

Support HVIPS

Please Disable Ad-Block To View This site. just help us to continue this work