Watch GCW Tournament Of Survival 3 2018

Watch GCW Tournament Of Survival 3 2018

 

 

 

 


 

 

dx-tv.com

 

 

 

 

Complete name : GCW.Tournament.Of.Survival.3.mp4
Format : MPEG-4
File size : 2.76 GiB
Duration : 2 h 27 min
Overall bit rate mode : Variable
Overall bit rate : 2 674 kb/s
Encoded date : UTC 2018-06-04 04:34:20
Tagged date : UTC 2018-06-04 04:34:20

Video
ID : 1
Format : AVC
Format/Info : Advanced Video Codec
Codec ID : avc1
Codec ID/Info : Advanced Video Coding
Duration : 2 h 27 min
Bit rate : 2 500 kb/s
Width : 720 pixels
Height : 480 pixels
Display aspect ratio : 16:9
Original display aspect rat : 16:9
Frame rate mode : Variable
Frame rate : 23.976 (24000/1001) FPS
Minimum frame rate : 23.974 FPS
Maximum frame rate : 23.981 FPS
Color space : YUV
Chroma subsampling : 4:2:0
Bit depth : 8 bits
Scan type : Progressive
Bits/(Pixel*Frame) : 0.302
Stream size : 2.59 GiB (94%)
Encoded date : UTC 2018-06-04 04:34:20
Tagged date : UTC 2018-06-04 04:34:20
Color range : Limited
Color primaries : BT.709
Transfer characteristics : BT.709
Matrix coefficients : BT.709

Audio
ID : 2
Format : AAC
Format/Info : Advanced Audio Codec
Format profile : LC
Codec ID : mp4a-40-2
Duration : 2 h 27 min
Bit rate mode : Variable
Bit rate : 164 kb/s
Channel(s) : 2 channels
Channel positions : Front: L R
Sampling rate : 48.0 kHz
Frame rate : 46.875 FPS (1024 SPF)
Compression mode : Lossy
Stream size : 174 MiB (6%)
Title : Stereo / Stereo
Language : English
Default : Yes
Alternate group : 1
Encoded date : UTC 2018-06-04 04:34:20
Tagged date : UTC 2018-06-04 04:34:20

 

 

 

 

 

 

 

Watch GCW Tournament Of Survival 3 2018

 

 

 

 

Watch online

 

 

Waiting finish converting video

 

 

Server 1

 

 

 

 

 

 

 

 

 

 

 

 

 

 

 

 

 

 

Server 2

 

 

 

 

 

 

 

 


 

 

 

 

 

 

Uploaded By Site DX-TV.com

 

 

 

open rar file to see this password

 

 

 

 

The password : DX-TV.com

 

 

 

 

Uploaded.net + rapidgator.net

 

 

 

 

 

 

http://shrt10.com/JUui2ey

 
http://shrt10.com/ig7Ovb
 

 

 

 

 

 

 

 

 

Watch GCW Tournament Of Survival 3 2018