Watch GCW Nick Gage Invitational 2 Full Show

Watch GCW Nick Gage Invitational 2 Full Show

 

 

 

 

 

 

wwe

 

 

 

 

 

 

 

Complete name : GCW Nick Gage Invitational 2.mp4
Format : MPEG-4
Format profile : Base Media / Version 2
Codec ID : mp42
File size : 2.77 GiB
Duration : 3h 5mn
Overall bit rate : 2 134 Kbps

Video
ID : 1
Format : AVC
Format/Info : Advanced Video Codec
Codec ID : avc1
Codec ID/Info : Advanced Video Coding
Duration : 3h 5mn
Bit rate mode : Variable
Bit rate : 2 002 Kbps
Width : 854 pixels
Height : 480 pixels
Display aspect ratio : 16:9
Frame rate mode : Constant
Frame rate : 23.976 fps
Color space : YUV
Chroma subsampling : 4:2:0
Bit depth : 8 bits
Scan type : Progressive
Bits/(Pixel*Frame) : 0.204
Stream size : 2.60 GiB (94%)

Audio
ID : 2
Format : AAC
Format/Info : Advanced Audio Codec
Format profile : LC
Codec ID : 40
Duration : 3h 5mn
Bit rate mode : Constant
Bit rate : 128 Kbps
Channel(s) : 2 channels
Channel positions : Front: L R
Sampling rate : 48.0 KHz
Compression mode : Lossy
Stream size : 170 MiB (6%)

 

 

 

 

 

 

 

 

 

Watch GCW Nick Gage Invitational 2 Full Show

 

 

 

 

Watch online

 

 

Waiting finish converting video

 

 

Server 1

 

 

 

 

 

 

 

 

 

 

 

 

 

 

 

 

 

 

 

 

Server 2

 

 

 

 

 

 

 

 


 

 

 

 

 

 

 

 

Srver 3

 

 

 

 

 

 

 

 

 

 

 


 

 

 

 

 

 

 

Uploaded By Site DX-TV.com

 

 

 

open rar file to see this password

 

 

 

 

The password is : DX-TV.com

 

 

 

 

 

 

 

Uploaded.net

 

 

 

 

 

 

 

 

 

http://shrt10.com/naui

 

 

 

 

 

 

rapidgator.net

 

 

 

 

 

 

 

http://shrt10.com/RZzU

 

 

 

 

 

 

 

Watch GCW Nick Gage Invitational 2 Full Show

Support HVIPS

Please Disable Ad-Block To View This site. just help us to continue this work