Watch GCW Jimmy Lloyds Birthday Party 2018 02 16

Watch GCW Jimmy Lloyds Birthday Party 2018 02 16

 

 

 

s

 

 

 

wwe

 

 

 

 

 

 

 
Complete name : GCW.Jimmy.Lloyds.Birthday.Party.2.16.2018.mp4
Format : MPEG-4
Format profile : Base Media / Version 2
Codec ID : mp42
File size : 2.12 GiB
Duration : 2h 21mn
Overall bit rate : 2 139 Kbps
Encoded date : UTC 2018-03-01 00:11:28
Tagged date : UTC 2018-03-01 00:12:57

Video
ID : 1
Format : AVC
Format/Info : Advanced Video Codec
Codec ID : avc1
Codec ID/Info : Advanced Video Coding
Duration : 2h 21mn
Bit rate mode : Variable
Bit rate : 2 008 Kbps
Width : 854 pixels
Height : 480 pixels
Display aspect ratio : 16:9
Frame rate mode : Constant
Frame rate : 23.976 fps
Color space : YUV
Chroma subsampling : 4:2:0
Bit depth : 8 bits
Scan type : Progressive
Bits/(Pixel*Frame) : 0.204
Stream size : 1.99 GiB (94%)
Language : English
Encoded date : UTC 2018-03-01 00:11:22
Tagged date : UTC 2018-03-01 00:12:57

Audio
ID : 2
Format : AAC
Format/Info : Advanced Audio Codec
Format profile : LC
Codec ID : 40
Duration : 2h 21mn
Bit rate mode : Constant
Bit rate : 128 Kbps
Channel(s) : 2 channels
Channel positions : Front: L R
Sampling rate : 48.0 KHz
Compression mode : Lossy
Stream size : 130 MiB (6%)
Language : English
Encoded date : UTC 2018-03-01 00:11:22
Tagged date : UTC 2018-03-01 00:12:57

 

 

 

 

 

 

 

 

 

 

 

 

 

 

 

 

 

 

Watch GCW Jimmy Lloyds Birthday Party 2018 02 16

 

 

 

 

Watch online

 

 

Waiting finish converting video

 

 

Server 1

 

 

 

 

 

 

 

 

 

 

 

 

 

 

 

 

 

 

Server 2

 

 

 

 

 

 


 

 

 

 

 

Uploaded By Site DX-TV.com

 

 

 

open rar file to see this password

 

 

 

 

The password is : DX-TV.com

 

 

 

 

 

 

Uploaded.net + rapidgator.net

 

 

 

 

 

 

http://shrt10.com/l9Bvh

 

 

 

http://shrt10.com/J3DKj096

 

 

 

 

 

 

 

 

 

 

 

Watch GCW Jimmy Lloyds Birthday Party 2018 02 16

Support HVIPS

Please Disable Ad-Block To View This site. just help us to continue this work